The Devil's Advocate (1997) [UNRATED Directors Cut]

Posted By: Without
The Devil's Advocate (1997) [UNRATED Directors Cut]

The Devil's Advocate (1997)
BDRip 1080p | MKV | 1920x800 | AVC@8277 kb/s | English DTS@1509 kb/s
Subs: English | 6 channels | 2 h 23 min | 9.83 GB
Genre: Drama, Mystery, Thriller

An exceptionally adept Florida lawyer is offered a job to work in New York City for a high-end law firm with a high-end boss - the biggest opportunity of his career to date.

IMDB - 1 win & 5 nominations


General
Complete name : D:\Torrents\The.Devils.Advocate.1997.UNRATED.Directors.Cut.1080p.BluRay.X264-AMIABLE\The.Devils.Advocate.1997.UNRATED.Directors.Cut.1080p.BluRay.X264-AMIABLE.mkv
Format : Matroska
Format version : Version 2
File size : 9.84 GiB
Duration : 2 h 23 min
Overall bit rate : 9 786 kb/s
Writing application : mkvmerge v4.1.1 ('Bouncin' Back') built on Jul 3 2010 22:54:08
Writing library : libebml v1.0.0 + libmatroska v1.0

Video
ID : 1
Format : AVC
Format/Info : Advanced Video Codec
Format profile : High@L4.1
Format settings, CABAC : Yes
Format settings, ReFrames : 5 frames
Codec ID : V_MPEG4/ISO/AVC
Duration : 2 h 23 min
Bit rate : 8 277 kb/s
Width : 1 920 pixels
Height : 800 pixels
Display aspect ratio : 2.40:1
Frame rate mode : Constant
Frame rate : 23.976 (24000/1001) FPS
Color space : YUV
Chroma subsampling : 4:2:0
Bit depth : 8 bits
Scan type : Progressive
Bits/(Pixel*Frame) : 0.225
Stream size : 8.13 GiB (83%)
Writing library : x264 core 125 r2208 d9d2288
Encoding settings : cabac=1 / ref=5 / deblock=1:0:0 / analyse=0x3:0x113 / me=umh / subme=8 / psy=1 / psy_rd=1.00:0.00 / mixed_ref=1 / me_range=16 / chroma_me=1 / trellis=1 / 8x8dct=1 / cqm=0 / deadzone=21,11 / fast_pskip=1 / chroma_qp_offset=-2 / threads=12 / lookahead_threads=2 / sliced_threads=0 / nr=0 / decimate=1 / interlaced=0 / bluray_compat=0 / constrained_intra=0 / bframes=3 / b_pyramid=2 / b_adapt=2 / b_bias=0 / direct=3 / weightb=1 / open_gop=0 / weightp=2 / keyint=240 / keyint_min=24 / scenecut=40 / intra_refresh=0 / rc_lookahead=50 / rc=2pass / mbtree=1 / bitrate=8277 / ratetol=1.0 / qcomp=0.60 / qpmin=0 / qpmax=69 / qpstep=4 / cplxblur=20.0 / qblur=0.5 / ip_ratio=1.40 / aq=1:1.00
Language : English
Default : Yes
Forced : No

Audio
ID : 2
Format : DTS
Format/Info : Digital Theater Systems
Mode : 16
Format settings, Endianness : Big
Codec ID : A_DTS
Duration : 2 h 23 min
Bit rate mode : Constant
Bit rate : 1 509 kb/s
Channel(s) : 6 channels
Channel positions : Front: L C R, Side: L R, LFE
Sampling rate : 48.0 kHz
Frame rate : 93.750 FPS (512 spf)
Bit depth : 24 bits
Compression mode : Lossy
Stream size : 1.52 GiB (15%)
Language : English
Default : Yes
Forced : No

Text
ID : 3
Format : UTF-8
Codec ID : S_TEXT/UTF8
Codec ID/Info : UTF-8 Plain Text
Language : English
Default : No
Forced : No

Menu
00:00:00.000 : en:00:00:00.000
00:03:25.205 : en:00:03:25.205
00:04:57.506 : en:00:04:57.506
00:09:07.213 : en:00:09:07.213
00:12:06.225 : en:00:12:06.225
00:14:58.856 : en:00:14:58.856
00:18:13.592 : en:00:18:13.592
00:20:52.585 : en:00:20:52.585
00:26:20.621 : en:00:26:20.621
00:30:09.016 : en:00:30:09.016
00:33:45.482 : en:00:33:45.482
00:36:10.960 : en:00:36:10.960
00:38:31.851 : en:00:38:31.851
00:41:35.785 : en:00:41:35.785
00:46:58.858 : en:00:46:58.858
00:49:17.121 : en:00:49:17.121
00:53:22.658 : en:00:53:22.658
00:56:24.339 : en:00:56:24.339
00:58:35.971 : en:00:58:35.971
01:03:40.316 : en:01:03:40.316
01:06:08.590 : en:01:06:08.590
01:10:25.012 : en:01:10:25.012
01:12:54.287 : en:01:12:54.287
01:14:30.675 : en:01:14:30.675
01:17:15.297 : en:01:17:15.297
01:19:17.378 : en:01:19:17.378
01:22:14.388 : en:01:22:14.388
01:25:59.988 : en:01:25:59.988
01:28:50.033 : en:01:28:50.033
01:33:36.152 : en:01:33:36.152
01:38:52.635 : en:01:38:52.635
01:43:14.355 : en:01:43:14.355
01:45:40.960 : en:01:45:40.960
01:48:28.377 : en:01:48:28.377
01:53:21.253 : en:01:53:21.253
01:55:40.350 : en:01:55:40.350
01:56:59.137 : en:01:56:59.137
02:01:48.134 : en:02:01:48.134
02:05:55.798 : en:02:05:55.798
02:09:59.792 : en:02:09:59.792
02:12:23.853 : en:02:12:23.853
02:13:40.095 : en:02:13:40.095
02:16:36.647 : en:02:16:36.647


BDRip 1080p Screenshots

The Devil's Advocate (1997) [UNRATED Directors Cut]

The Devil's Advocate (1997) [UNRATED Directors Cut]

The Devil's Advocate (1997) [UNRATED Directors Cut]


Come Visit My Blog (•‿•)