The Dino King (2012)

Posted By: vivid23
The Dino King (2012)

The Dino King (2012)
Bluray-rip 720p | 1280x720 | MKV/x264 @ 5552 Kbps | 88mn | Audio: English DTS 1510 kbps, 6 channels | Subs: None | 4.37 GB
Genre: Documentary

IN A TIME BEFORE MAN, when Dinosaurs ruled the earth, a young Tarbosaurus fights a desperate battle to survive after becoming separated from his family. Lost in the deepest depths of the hostile jungle, hungry and alone, the Tarbosaurus happens upon a much needed ally and companion in the form of a young female Tarbosaurus, together they help each other survive through the treacherous and forbidding terrain. Many years later, now an adult and with a family of his own, the brave Tarbosaurus returns to his birthplace, only to find a monstrous, terrifying T-Rex, now the king of his family’s hunting grounds ruling the land with a ferocious power. The Tarbosaurus must challenge him once and for all to regain the land and become The Dino King.

Video
ID : 1
Format : AVC
Format/Info : Advanced Video Codec
Format profile : High@L4.1
Format settings, CABAC : Yes
Format settings, ReFrames : 5 frames
Format settings, GOP : M=4, N=16
Codec ID : V_MPEG4/ISO/AVC
Duration : 1h 28mn
Bit rate : 5 552 Kbps
Width : 1 280 pixels
Height : 720 pixels
Display aspect ratio : 16:9
Frame rate : 23.976 fps
Color space : YUV
Chroma subsampling : 4:2:0
Bit depth : 8 bits
Scan type : Progressive
Bits/(Pixel*Frame) : 0.251
Stream size : 3.35 GiB (77%)
Writing library : x264 core 129 r2245 bc13772
Encoding settings : cabac=1 / ref=5 / deblock=1:0:0 / analyse=0x3:0x133 / me=umh / subme=8 / psy=1 / psy_rd=1.00:0.00 / mixed_ref=1 / me_range=16 / chroma_me=1 / trellis=1 / 8x8dct=1 / cqm=0 / deadzone=21,11 / fast_pskip=0 / chroma_qp_offset=-2 / threads=18 / lookahead_threads=3 / sliced_threads=0 / nr=0 / decimate=1 / interlaced=0 / bluray_compat=0 / constrained_intra=0 / bframes=3 / b_pyramid=2 / b_adapt=1 / b_bias=0 / direct=1 / weightb=1 / open_gop=0 / weightp=2 / keyint=250 / keyint_min=23 / scenecut=40 / intra_refresh=0 / rc_lookahead=40 / rc=2pass / mbtree=1 / bitrate=5552 / ratetol=1.0 / qcomp=0.60 / qpmin=0 / qpmax=69 / qpstep=4 / cplxblur=20.0 / qblur=0.5 / ip_ratio=1.40 / aq=1:1.00
Language : English

Audio
ID : 2
Format : DTS
Format/Info : Digital Theater Systems
Codec ID : A_DTS
Duration : 1h 28mn
Bit rate mode : Constant
Bit rate : 1 510 Kbps
Channel(s) : 6 channels
Channel positions : Front: L C R, Side: L R, LFE
Sampling rate : 48.0 KHz
Bit depth : 24 bits
Compression mode : Lossy
Stream size : 957 MiB (21%)


The Dino King (2012)

The Dino King (2012)


Feel free to contact me when links are dead



http://uploaded.net/file/gy340lxz/dinoking.part01.rar
http://uploaded.net/file/hxssi83t/dinoking.part02.rar
http://uploaded.net/file/yn4wo43k/dinoking.part03.rar
http://uploaded.net/file/k2fwmckg/dinoking.part04.rar
http://uploaded.net/file/gs8jvduj/dinoking.part05.rar
http://uploaded.net/file/ep1yc2f4/dinoking.part06.rar
http://uploaded.net/file/tw0im95l/dinoking.part07.rar
http://uploaded.net/file/z2dm2fmn/dinoking.part08.rar
http://uploaded.net/file/tgcgh0og/dinoking.part09.rar
http://uploaded.net/file/kj9ykgsh/dinoking.part10.rar
http://uploaded.net/file/pvkvju7c/dinoking.part11.rar
http://uploaded.net/file/0o77j33i/dinoking.part12.rar
http://uploaded.net/file/hxii1mgv/dinoking.part13.rar
http://uploaded.net/file/9fijusk3/dinoking.part14.rar

http://rapidgator.net/file/74239872/dinoking.part01.rar
http://rapidgator.net/file/74239894/dinoking.part02.rar
http://rapidgator.net/file/74239881/dinoking.part03.rar
http://rapidgator.net/file/74239866/dinoking.part04.rar
http://rapidgator.net/file/74239884/dinoking.part05.rar
http://rapidgator.net/file/74239873/dinoking.part06.rar
http://rapidgator.net/file/74239863/dinoking.part07.rar
http://rapidgator.net/file/74239886/dinoking.part08.rar
http://rapidgator.net/file/74239879/dinoking.part09.rar
http://rapidgator.net/file/74239892/dinoking.part10.rar
http://rapidgator.net/file/74240085/dinoking.part11.rar
http://rapidgator.net/file/74240077/dinoking.part12.rar
http://rapidgator.net/file/74240087/dinoking.part13.rar
http://rapidgator.net/file/74239920/dinoking.part14.rar