Tags
Language
Tags

The Hate U Give (2018)

Posted By: Without
1080p (FullHD) / BDRip IMDb
The Hate U Give (2018)

The Hate U Give (2018)
BDRip | MKV | 720x300 | AVC@703 kb/s | English AAC@122 kb/s | 2 channels | 2 h 13 min | 788 MB
BRRip | MKV | 720x304 | AVC@1150 kb/s | English AC3@448 kb/s | 6 channels | 2 h 13 min | 1.48 GB
BDRip 720p | MKV | 1280x536 | AVC@5535 kb/s | English DTS@1509 kb/s (6 ch) | 2 h 13 min | 6.55 GB
BDRip 1080p | MKV | 1920x800 | AVC@9065 kb/s | English DTS@1509 kb/s (6 ch) | 2 h 13 min | 9.83 GB
Subs: English
Genre: Crime | Drama

Starr witnesses the fatal shooting of her childhood best friend Khalil at the hands of a police officer. Now, facing pressure from all sides of the community, Starr must find her voice and stand up for what's right.

IMDB - 17 wins & 18 nominations.


General
cocain-the.hate.u.give.2018.bdrip.x264.mkv
Format : Matroska
Format version : Version 4 / Version 2
File size : 788 MiB
Duration : 2 h 13 min
Overall bit rate : 828 kb/s
Encoded date : UTC 2019-01-12 01:52:40
Writing application : mkvmerge v8.5.2 ('DiAMOND') 64bit
Writing library : libebml v1.3.3 + libmatroska v1.4.4

Video
ID : 1
Format : AVC
Format/Info : Advanced Video Codec
Format profile : High@L3.1
Format settings, CABAC : Yes
Format settings, ReFrames : 5 frames
Codec ID : V_MPEG4/ISO/AVC
Duration : 2 h 13 min
Width : 720 pixels
Height : 300 pixels
Display aspect ratio : 2.40:1
Frame rate mode : Constant
Frame rate : 23.976 (24000/1001) FPS
Color space : YUV
Chroma subsampling : 4:2:0
Bit depth : 8 bits
Scan type : Progressive
Writing library : x264 core 155 r2901 7d0ff22
Encoding settings : cabac=1 / ref=5 / deblock=1:-2:-2 / analyse=0x3:0x113 / me=hex / subme=8 / psy=1 / psy_rd=1.00:0.00 / mixed_ref=1 / me_range=16 / chroma_me=1 / trellis=2 / 8x8dct=1 / cqm=0 / deadzone=21,11 / fast_pskip=1 / chroma_qp_offset=-2 / threads=24 / lookahead_threads=2 / sliced_threads=0 / nr=0 / decimate=1 / interlaced=0 / bluray_compat=0 / constrained_intra=0 / bframes=3 / b_pyramid=2 / b_adapt=1 / b_bias=0 / direct=3 / weightb=1 / open_gop=0 / weightp=2 / keyint=240 / keyint_min=24 / scenecut=40 / intra_refresh=0 / rc_lookahead=50 / rc=crf / mbtree=1 / crf=19.0 / qcomp=0.60 / qpmin=0 / qpmax=69 / qpstep=4 / ip_ratio=1.40 / aq=1:0.70
Language : English
Default : Yes
Forced : No
Color range : Limited
Matrix coefficients : BT.709

Audio
ID : 2
Format : AAC
Format/Info : Advanced Audio Codec
Format profile : LC
Codec ID : A_AAC
Duration : 2 h 13 min
Channel(s) : 2 channels
Channel positions : Front: L R
Sampling rate : 48.0 kHz
Frame rate : 46.875 FPS (1024 spf)
Compression mode : Lossy
Delay relative to video : 20 ms
Language : English
Default : Yes
Forced : No

Text #1
ID : 3
Format : UTF-8
Codec ID : S_TEXT/UTF8
Codec ID/Info : UTF-8 Plain Text
Title : English regular
Language : English
Default : No
Forced : No

Text #2
ID : 4
Format : UTF-8
Codec ID : S_TEXT/UTF8
Codec ID/Info : UTF-8 Plain Text
Title : English sdh
Language : English
Default : No
Forced : No

Menu
00:00:00.000 : en:00:00:00.000
00:03:55.777 : en:00:03:55.777
00:08:18.081 : en:00:08:18.081
00:13:14.252 : en:00:13:14.252
00:19:32.129 : en:00:19:32.129
00:24:48.320 : en:00:24:48.320
00:29:34.314 : en:00:29:34.314
00:34:54.217 : en:00:34:54.217
00:40:09.532 : en:00:40:09.532
00:45:05.411 : en:00:45:05.411
00:50:09.215 : en:00:50:09.215
00:58:27.587 : en:00:58:27.587
01:03:58.376 : en:01:03:58.376
01:10:00.988 : en:01:10:00.988
01:14:51.278 : en:01:14:51.278
01:19:50.786 : en:01:19:50.786
01:27:09.599 : en:01:27:09.599
01:32:11.693 : en:01:32:11.693
01:37:36.225 : en:01:37:36.225
01:43:59.066 : en:01:43:59.066
01:49:39.156 : en:01:49:39.156
01:56:20.432 : en:01:56:20.432
01:58:00.156 : en:01:58:00.156
02:03:50.965 : en:02:03:50.965


General
The Hate U Give.2018.BRRip.XviD.AC3-EVO.avi
Format : Matroska
Format version : Version 4 / Version 2
File size : 1.48 GiB
Duration : 2 h 13 min
Overall bit rate : 1 592 kb/s
Encoded date : UTC 2019-01-12 03:26:43
Writing application : mkvmerge v6.7.0 ('Back to the Ground') 64bit built on Jan 8 2014 15:10:52
Writing library : libebml v1.3.0 + libmatroska v1.4.1

Video
ID : 1
Format : AVC
Format/Info : Advanced Video Codec
Format profile : High@L4.1
Format settings, CABAC : Yes
Format settings, ReFrames : 4 frames
Codec ID : V_MPEG4/ISO/AVC
Duration : 2 h 13 min
Bit rate : 1 150 kb/s
Width : 720 pixels
Height : 304 pixels
Display aspect ratio : 2.35:1
Frame rate mode : Constant
Frame rate : 23.976 (23976/1000) FPS
Original frame rate : 23.976 (24000/1001) FPS
Color space : YUV
Chroma subsampling : 4:2:0
Bit depth : 8 bits
Scan type : Progressive
Bits/(Pixel*Frame) : 0.219
Stream size : 1.03 GiB (70%)
Writing library : x264 core 130 r2273 b3065e6
Encoding settings : cabac=1 / ref=1 / deblock=1:0:0 / analyse=0x3:0x113 / me=hex / subme=2 / psy=1 / psy_rd=1.00:0.00 / mixed_ref=0 / me_range=16 / chroma_me=1 / trellis=0 / 8x8dct=1 / cqm=0 / deadzone=21,11 / fast_pskip=1 / chroma_qp_offset=0 / threads=6 / lookahead_threads=2 / sliced_threads=0 / nr=0 / decimate=1 / interlaced=0 / bluray_compat=0 / constrained_intra=0 / bframes=3 / b_pyramid=2 / b_adapt=1 / b_bias=0 / direct=1 / weightb=1 / open_gop=0 / weightp=1 / keyint=240 / keyint_min=24 / scenecut=40 / intra_refresh=0 / rc_lookahead=10 / rc=abr / mbtree=1 / bitrate=1150 / ratetol=1.0 / qcomp=0.60 / qpmin=0 / qpmax=69 / qpstep=4 / vbv_maxrate=62500 / vbv_bufsize=78125 / nal_hrd=none / ip_ratio=1.40 / aq=1:1.00
Default : Yes
Forced : No
Color range : Limited
Color primaries : BT.709
Transfer characteristics : BT.709
Matrix coefficients : BT.709

Audio
ID : 2
Format : AC-3
Format/Info : Audio Coding 3
Mode extension : CM (complete main)
Format settings, Endianness : Big
Codec ID : A_AC3
Duration : 2 h 13 min
Bit rate mode : Constant
Bit rate : 448 kb/s
Channel(s) : 6 channels
Channel positions : Front: L C R, Side: L R, LFE
Sampling rate : 48.0 kHz
Frame rate : 31.250 FPS (1536 spf)
Bit depth : 16 bits
Compression mode : Lossy
Stream size : 426 MiB (28%)
Language : English
Default : Yes
Forced : No


General
blow-the.hate.u.give.2018.720p.bluray.x264.mkv
Format : Matroska
Format version : Version 4 / Version 2
File size : 6.55 GiB
Duration : 2 h 13 min
Overall bit rate : 7 050 kb/s
Encoded date : UTC 2019-01-12 01:34:17
Writing application : mkvmerge v8.5.2 ('DiAMOND') 64bit
Writing library : libebml v1.3.3 + libmatroska v1.4.4

Video
ID : 1
Format : AVC
Format/Info : Advanced Video Codec
Format profile : High@L4.1
Format settings, CABAC : Yes
Format settings, ReFrames : 5 frames
Codec ID : V_MPEG4/ISO/AVC
Duration : 2 h 13 min
Bit rate : 5 535 kb/s
Width : 1 280 pixels
Height : 536 pixels
Display aspect ratio : 2.40:1
Frame rate mode : Constant
Frame rate : 23.976 (24000/1001) FPS
Color space : YUV
Chroma subsampling : 4:2:0
Bit depth : 8 bits
Scan type : Progressive
Bits/(Pixel*Frame) : 0.336
Stream size : 5.02 GiB (77%)
Writing library : x264 core 155 r2901 7d0ff22
Encoding settings : cabac=1 / ref=5 / deblock=1:0:0 / analyse=0x3:0x113 / me=umh / subme=8 / psy=1 / psy_rd=1.00:0.00 / mixed_ref=1 / me_range=16 / chroma_me=1 / trellis=1 / 8x8dct=1 / cqm=0 / deadzone=21,11 / fast_pskip=1 / chroma_qp_offset=-2 / threads=24 / lookahead_threads=4 / sliced_threads=0 / nr=0 / decimate=1 / interlaced=0 / bluray_compat=0 / constrained_intra=0 / bframes=3 / b_pyramid=2 / b_adapt=1 / b_bias=0 / direct=3 / weightb=1 / open_gop=0 / weightp=2 / keyint=240 / keyint_min=24 / scenecut=40 / intra_refresh=0 / rc_lookahead=50 / rc=2pass / mbtree=1 / bitrate=5535 / ratetol=1.0 / qcomp=0.60 / qpmin=0 / qpmax=69 / qpstep=4 / cplxblur=20.0 / qblur=0.5 / ip_ratio=1.40 / aq=1:1.00
Language : English
Default : Yes
Forced : No

Audio
ID : 2
Format : DTS
Format/Info : Digital Theater Systems
Mode : 16
Format settings, Endianness : Big
Codec ID : A_DTS
Duration : 2 h 13 min
Bit rate mode : Constant
Bit rate : 1 509 kb/s
Channel(s) : 6 channels
Channel positions : Front: L C R, Side: L R, LFE
Sampling rate : 48.0 kHz
Frame rate : 93.750 FPS (512 spf)
Bit depth : 24 bits
Compression mode : Lossy
Stream size : 1.40 GiB (21%)
Language : English
Default : Yes
Forced : No

Text #1
ID : 3
Format : UTF-8
Codec ID : S_TEXT/UTF8
Codec ID/Info : UTF-8 Plain Text
Title : English regular
Language : English
Default : No
Forced : No

Text #2
ID : 4
Format : UTF-8
Codec ID : S_TEXT/UTF8
Codec ID/Info : UTF-8 Plain Text
Title : English sdh
Language : English
Default : No
Forced : No

Menu
00:00:00.000 : en:00:00:00.000
00:03:55.777 : en:00:03:55.777
00:08:18.081 : en:00:08:18.081
00:13:14.252 : en:00:13:14.252
00:19:32.129 : en:00:19:32.129
00:24:48.320 : en:00:24:48.320
00:29:34.314 : en:00:29:34.314
00:34:54.217 : en:00:34:54.217
00:40:09.532 : en:00:40:09.532
00:45:05.411 : en:00:45:05.411
00:50:09.215 : en:00:50:09.215
00:58:27.587 : en:00:58:27.587
01:03:58.376 : en:01:03:58.376
01:10:00.988 : en:01:10:00.988
01:14:51.278 : en:01:14:51.278
01:19:50.786 : en:01:19:50.786
01:27:09.599 : en:01:27:09.599
01:32:11.693 : en:01:32:11.693
01:37:36.225 : en:01:37:36.225
01:43:59.066 : en:01:43:59.066
01:49:39.156 : en:01:49:39.156
01:56:20.432 : en:01:56:20.432
01:58:00.156 : en:01:58:00.156
02:03:50.965 : en:02:03:50.965


General
blow-the.hate.u.give.2018.1080p.bluray.x264.mkv
Format : Matroska
Format version : Version 4 / Version 2
File size : 9.83 GiB
Duration : 2 h 13 min
Overall bit rate : 10.6 Mb/s
Encoded date : UTC 2019-01-12 02:10:18
Writing application : mkvmerge v8.5.2 ('DiAMOND') 64bit
Writing library : libebml v1.3.3 + libmatroska v1.4.4

Video
ID : 1
Format : AVC
Format/Info : Advanced Video Codec
Format profile : High@L4.1
Format settings, CABAC : Yes
Format settings, ReFrames : 5 frames
Codec ID : V_MPEG4/ISO/AVC
Duration : 2 h 13 min
Bit rate : 9 065 kb/s
Width : 1 920 pixels
Height : 800 pixels
Display aspect ratio : 2.40:1
Frame rate mode : Constant
Frame rate : 23.976 (24000/1001) FPS
Color space : YUV
Chroma subsampling : 4:2:0
Bit depth : 8 bits
Scan type : Progressive
Bits/(Pixel*Frame) : 0.246
Stream size : 8.23 GiB (84%)
Writing library : x264 core 155 r2901 7d0ff22
Encoding settings : cabac=1 / ref=5 / deblock=1:0:0 / analyse=0x3:0x113 / me=umh / subme=8 / psy=1 / psy_rd=1.00:0.00 / mixed_ref=1 / me_range=16 / chroma_me=1 / trellis=1 / 8x8dct=1 / cqm=0 / deadzone=21,11 / fast_pskip=1 / chroma_qp_offset=-2 / threads=24 / lookahead_threads=4 / sliced_threads=0 / nr=0 / decimate=1 / interlaced=0 / bluray_compat=0 / constrained_intra=0 / bframes=3 / b_pyramid=2 / b_adapt=1 / b_bias=0 / direct=3 / weightb=1 / open_gop=0 / weightp=2 / keyint=240 / keyint_min=24 / scenecut=40 / intra_refresh=0 / rc_lookahead=50 / rc=2pass / mbtree=1 / bitrate=9065 / ratetol=1.0 / qcomp=0.60 / qpmin=0 / qpmax=69 / qpstep=4 / cplxblur=20.0 / qblur=0.5 / ip_ratio=1.40 / aq=1:1.00
Language : English
Default : Yes
Forced : No

Audio
ID : 2
Format : DTS
Format/Info : Digital Theater Systems
Mode : 16
Format settings, Endianness : Big
Codec ID : A_DTS
Duration : 2 h 13 min
Bit rate mode : Constant
Bit rate : 1 509 kb/s
Channel(s) : 6 channels
Channel positions : Front: L C R, Side: L R, LFE
Sampling rate : 48.0 kHz
Frame rate : 93.750 FPS (512 spf)
Bit depth : 24 bits
Compression mode : Lossy
Stream size : 1.40 GiB (14%)
Language : English
Default : Yes
Forced : No

Text #1
ID : 3
Format : UTF-8
Codec ID : S_TEXT/UTF8
Codec ID/Info : UTF-8 Plain Text
Title : English regular
Language : English
Default : No
Forced : No

Text #2
ID : 4
Format : UTF-8
Codec ID : S_TEXT/UTF8
Codec ID/Info : UTF-8 Plain Text
Title : English sdh
Language : English
Default : No
Forced : No

Menu
00:00:00.000 : en:00:00:00.000
00:03:55.777 : en:00:03:55.777
00:08:18.081 : en:00:08:18.081
00:13:14.252 : en:00:13:14.252
00:19:32.129 : en:00:19:32.129
00:24:48.320 : en:00:24:48.320
00:29:34.314 : en:00:29:34.314
00:34:54.217 : en:00:34:54.217
00:40:09.532 : en:00:40:09.532
00:45:05.411 : en:00:45:05.411
00:50:09.215 : en:00:50:09.215
00:58:27.587 : en:00:58:27.587
01:03:58.376 : en:01:03:58.376
01:10:00.988 : en:01:10:00.988
01:14:51.278 : en:01:14:51.278
01:19:50.786 : en:01:19:50.786
01:27:09.599 : en:01:27:09.599
01:32:11.693 : en:01:32:11.693
01:37:36.225 : en:01:37:36.225
01:43:59.066 : en:01:43:59.066
01:49:39.156 : en:01:49:39.156
01:56:20.432 : en:01:56:20.432
01:58:00.156 : en:01:58:00.156
02:03:50.965 : en:02:03:50.965



BDRip Screenshots

The Hate U Give (2018)

The Hate U Give (2018)

The Hate U Give (2018)


BRRip Screenshots

The Hate U Give (2018)

The Hate U Give (2018)

The Hate U Give (2018)


BDRip 720p Screenshots

The Hate U Give (2018)

The Hate U Give (2018)

The Hate U Give (2018)


BDRip 1080p Screenshots

The Hate U Give (2018)

The Hate U Give (2018)

The Hate U Give (2018)


Come Visit My Blog (•‿•)