Tags
Language
Tags

The House That Jack Built (2018)

Posted By: Without
1080p (FullHD) / WEB-DL IMDb
The House That Jack Built (2018)

The House That Jack Built (2018)
HDRip | AVI | 720x304 | XviD@1118 kb/s | English AC3@384 kb/s | 6 channels | 2 h 30 min | 1.59 GB
WEB-DL 720p | MKV | 1280x528 | AVC@4108 kb/s | English AC3@384 kb/s | 6 channels | 2 h 31 min | 4.37 GB
WEB-DL 1080p | MKV | 1920x796 | AVC@4597 kb/s | English AC3@384 kb/s | 6 channels | 2 h 30 min | 5.24 GB
WEB-DL 720p | MKV | 1280x528 | AVC@3205 kb/s | English AC3+@640 kb/s | 6 channels | 2 h 30 min | 4.05 GB
WEB-DL 1080p | MKV | 1920x800 | AVC@11.6 Mb/s | English AC3@640 kb/s | 6 channels | 2 h 30 min | 12.9 GB
Subs: English (4.05 GB & 12.9 GB)
Genre: Comedy, Drama, Horror

The story follows Jack, a highly intelligent serial killer, over the course of twelve years, and depicts the murders that really develop his inner madman.



General
The.House.That.Jack.Built.2018.HDRip.XviD.AC3-EVO.avi
Format : AVI
Format/Info : Audio Video Interleave
File size : 1.59 GiB
Duration : 2 h 30 min
Overall bit rate : 1 511 kb/s
Writing library : VirtualDub build 32593/release

Video
ID : 0
Format : MPEG-4 Visual
Format profile : Advanced Simple@L5
Format settings, BVOP : 2
Format settings, QPel : No
Format settings, GMC : No warppoints
Format settings, Matrix : Default (H.263)
Muxing mode : Packed bitstream
Codec ID : XVID
Codec ID/Hint : XviD
Duration : 2 h 30 min
Bit rate : 1 118 kb/s
Width : 720 pixels
Height : 304 pixels
Display aspect ratio : 2.35:1
Frame rate : 24.000 FPS
Color space : YUV
Chroma subsampling : 4:2:0
Bit depth : 8 bits
Scan type : Progressive
Compression mode : Lossy
Bits/(Pixel*Frame) : 0.213
Stream size : 1.18 GiB (74%)
Writing library : XviD 67

Audio
ID : 1
Format : AC-3
Format/Info : Audio Coding 3
Mode extension : CM (complete main)
Format settings, Endianness : Big
Codec ID : 2000
Duration : 2 h 30 min
Bit rate mode : Constant
Bit rate : 384 kb/s
Channel(s) : 6 channels
Channel positions : Front: L C R, Side: L R, LFE
Sampling rate : 48.0 kHz
Frame rate : 31.250 FPS (1536 spf)
Bit depth : 16 bits
Compression mode : Lossy
Stream size : 414 MiB (25%)
Alignment : Aligned on interleaves
Interleave, duration : 42 ms (1.00 video frame)
Interleave, preload duration : 512 ms


General
The.House.That.Jack.Built.2018.720p.WEB-DL.DD5.1.H264-CMRG.mkv
Format : Matroska
Format version : Version 4 / Version 2
File size : 4.74 GiB
Duration : 2 h 31 min
Overall bit rate : 4 493 kb/s
Movie name : CMRG
Encoded date : UTC 2018-12-14 05:17:57
Writing application : mkvmerge v11.0.0 ('Alive') 64bit
Writing library : libebml v1.3.4 + libmatroska v1.4.5

Video
ID : 1
Format : AVC
Format/Info : Advanced Video Codec
Format profile : Main@L3.1
Format settings, CABAC : No
Format settings, ReFrames : 2 frames
Codec ID : V_MPEG4/ISO/AVC
Duration : 2 h 31 min
Bit rate : 4 108 kb/s
Width : 1 280 pixels
Height : 528 pixels
Display aspect ratio : 2.40:1
Frame rate mode : Constant
Frame rate : 24.000 FPS
Color space : YUV
Chroma subsampling : 4:2:0
Bit depth : 8 bits
Scan type : Progressive
Bits/(Pixel*Frame) : 0.253
Stream size : 4.33 GiB (91%)
Language : English
Default : Yes
Forced : No
Color range : Limited
Color primaries : BT.709
Transfer characteristics : BT.709
Matrix coefficients : BT.709

Audio
ID : 2
Format : AC-3
Format/Info : Audio Coding 3
Mode extension : CM (complete main)
Format settings, Endianness : Big
Codec ID : A_AC3
Duration : 2 h 31 min
Bit rate mode : Constant
Bit rate : 384 kb/s
Channel(s) : 6 channels
Channel positions : Front: L C R, Side: L R, LFE
Sampling rate : 48.0 kHz
Frame rate : 31.250 FPS (1536 spf)
Bit depth : 16 bits
Compression mode : Lossy
Delay relative to video : -42 ms
Stream size : 415 MiB (9%)
Language : English
Default : Yes
Forced : No

Menu
00:00:00.000 : en:1
00:06:10.000 : en:2
00:12:41.000 : en:3
00:19:43.000 : en:4
00:25:47.000 : en:5
00:32:16.000 : en:6
00:39:14.000 : en:7
00:45:50.000 : en:8
00:51:23.000 : en:9
00:57:56.000 : en:10
01:04:36.000 : en:11
01:11:05.000 : en:12
01:17:13.000 : en:13
01:23:22.000 : en:14
01:29:43.000 : en:15
01:37:40.000 : en:16
01:42:01.000 : en:17
01:50:21.000 : en:18
01:56:40.000 : en:19
02:01:21.000 : en:20
02:08:10.000 : en:21
02:14:16.000 : en:22
02:21:13.000 : en:23
02:26:51.000 : en:24


General
The.House.That.Jack.Built.2018.1080p.WEB-DL.H264.AC3-EVO.mkv
Format : Matroska
Format version : Version 4 / Version 2
File size : 5.25 GiB
Duration : 2 h 30 min
Overall bit rate : 4 983 kb/s
Encoded date : UTC 2018-12-14 05:10:27
Writing application : mkvmerge v25.0.0 ('Prog Noir') 64-bit
Writing library : libebml v1.3.6 + libmatroska v1.4.9

Video
ID : 2
Format : AVC
Format/Info : Advanced Video Codec
Format profile : High@L4
Format settings, CABAC : Yes
Format settings, ReFrames : 5 frames
Codec ID : V_MPEG4/ISO/AVC
Duration : 2 h 30 min
Bit rate : 4 597 kb/s
Width : 1 920 pixels
Height : 796 pixels
Display aspect ratio : 2.40:1
Frame rate mode : Constant
Frame rate : 24.000 FPS
Color space : YUV
Chroma subsampling : 4:2:0
Bit depth : 8 bits
Scan type : Progressive
Bits/(Pixel*Frame) : 0.125
Stream size : 4.84 GiB (92%)
Language : English
Default : Yes
Forced : No
Color range : Limited
Color primaries : BT.709
Transfer characteristics : BT.709
Matrix coefficients : BT.709

Audio
ID : 1
Format : AC-3
Format/Info : Audio Coding 3
Mode extension : CM (complete main)
Format settings, Endianness : Big
Codec ID : A_AC3
Duration : 2 h 30 min
Bit rate mode : Constant
Bit rate : 384 kb/s
Channel(s) : 6 channels
Channel positions : Front: L C R, Side: L R, LFE
Sampling rate : 48.0 kHz
Frame rate : 31.250 FPS (1536 spf)
Bit depth : 16 bits
Compression mode : Lossy
Delay relative to video : -42 ms
Stream size : 414 MiB (8%)
Language : English
Default : Yes
Forced : No

Menu
00:00:00.000 : en:1
00:14:58.040 : en:2
00:26:39.409 : en:3
00:41:14.249 : en:4
00:51:58.158 : en:5
00:57:44.947 : en:6
01:10:22.367 : en:7
01:25:24.907 : en:8
01:37:28.997 : en:9
01:50:08.997 : en:10
02:01:27.997 : en:11
02:12:00.287 : en:12
02:26:42.997 : en:13


General
The.House.That.Jack.Built.2018.720p.AMZN.WEB-DL.DDP5.1.H.264-NTG.mkv
Format : Matroska
Format version : Version 4 / Version 2
File size : 4.05 GiB
Duration : 2 h 30 min
Overall bit rate : 3 847 kb/s
Encoded date : UTC 2018-12-14 08:48:49
Writing application : mkvmerge v21.0.0 ('Tardigrades Will Inherit The Earth') 64-bit
Writing library : libebml v1.3.5 + libmatroska v1.4.8

Video
ID : 1
Format : AVC
Format/Info : Advanced Video Codec
Format profile : High@L3.1
Format settings, CABAC : Yes
Format settings, ReFrames : 5 frames
Codec ID : V_MPEG4/ISO/AVC
Duration : 2 h 30 min
Bit rate : 3 205 kb/s
Width : 1 280 pixels
Height : 528 pixels
Display aspect ratio : 2.40:1
Original display aspect ratio : 2.40:1
Frame rate mode : Constant
Frame rate : 24.000 FPS
Color space : YUV
Chroma subsampling : 4:2:0
Bit depth : 8 bits
Scan type : Progressive
Bits/(Pixel*Frame) : 0.198
Stream size : 3.38 GiB (83%)
Default : Yes
Forced : No
Color range : Limited
Color primaries : BT.709
Transfer characteristics : BT.709
Matrix coefficients : BT.709

Audio
ID : 2
Format : E-AC-3
Format/Info : Enhanced Audio Coding 3
Format settings, Endianness : Big
Codec ID : A_EAC3
Duration : 2 h 30 min
Bit rate mode : Constant
Bit rate : 640 kb/s
Channel(s) : 6 channels
Channel positions : Front: L C R, Side: L R, LFE
Sampling rate : 48.0 kHz
Frame rate : 187.500 FPS (256 spf)
Compression mode : Lossy
Stream size : 690 MiB (17%)
Language : English
Default : Yes
Forced : No

Text
ID : 3
Format : UTF-8
Codec ID : S_TEXT/UTF8
Codec ID/Info : UTF-8 Plain Text
Duration : 2 h 30 min
Bit rate : 48 b/s
Count of elements : 1857
Stream size : 53.9 KiB (0%)
Title : SDH
Language : English
Default : No
Forced : No


General
The.House.That.Jack.Built.2018.1080p.AMZN.WEB-DL.DDP5.1.H.264-NTG.mkv
Format : Matroska
Format version : Version 4 / Version 2
File size : 12.9 GiB
Duration : 2 h 30 min
Overall bit rate : 12.3 Mb/s
Encoded date : UTC 2018-12-14 08:43:26
Writing application : mkvmerge v21.0.0 ('Tardigrades Will Inherit The Earth') 64-bit
Writing library : libebml v1.3.5 + libmatroska v1.4.8

Video
ID : 1
Format : AVC
Format/Info : Advanced Video Codec
Format profile : High@L4
Format settings, CABAC : Yes
Format settings, ReFrames : 4 frames
Codec ID : V_MPEG4/ISO/AVC
Duration : 2 h 30 min
Bit rate : 11.6 Mb/s
Width : 1 920 pixels
Height : 800 pixels
Display aspect ratio : 2.40:1
Frame rate mode : Constant
Frame rate : 24.000 FPS
Color space : YUV
Chroma subsampling : 4:2:0
Bit depth : 8 bits
Scan type : Progressive
Bits/(Pixel*Frame) : 0.315
Stream size : 12.2 GiB (95%)
Default : Yes
Forced : No
Color range : Limited
Color primaries : BT.709
Transfer characteristics : BT.709
Matrix coefficients : BT.709

Audio
ID : 2
Format : E-AC-3
Format/Info : Enhanced Audio Coding 3
Format settings, Endianness : Big
Codec ID : A_EAC3
Duration : 2 h 30 min
Bit rate mode : Constant
Bit rate : 640 kb/s
Channel(s) : 6 channels
Channel positions : Front: L C R, Side: L R, LFE
Sampling rate : 48.0 kHz
Frame rate : 187.500 FPS (256 spf)
Compression mode : Lossy
Stream size : 690 MiB (5%)
Language : English
Default : Yes
Forced : No

Text
ID : 3
Format : UTF-8
Codec ID : S_TEXT/UTF8
Codec ID/Info : UTF-8 Plain Text
Duration : 2 h 30 min
Bit rate : 48 b/s
Count of elements : 1857
Stream size : 53.9 KiB (0%)
Title : SDH
Language : English
Default : No
Forced : No



HDRip Screenshots

The House That Jack Built (2018)

The House That Jack Built (2018)

The House That Jack Built (2018)


WEB-DL 720p Screenshots

The House That Jack Built (2018)

The House That Jack Built (2018)

The House That Jack Built (2018)


WEB-DL 1080p Screenshots

The House That Jack Built (2018)

The House That Jack Built (2018)

The House That Jack Built (2018)


WEB-DL 720p (4.05 GB) Screenshots

The House That Jack Built (2018)

The House That Jack Built (2018)

The House That Jack Built (2018)


WEB-DL 1080p (12.9 GB) Screenshots

The House That Jack Built (2018)

The House That Jack Built (2018)

The House That Jack Built (2018)


Come Visit My Blog (•‿•)