Subcategories

The Mule (2014)

Posted By: Without
The Mule (2014)

The Mule (2014)
HDRip | AVI | 720×304 | XviD@1475 Kbps | English MP3@192 Kbps | 2 Channels | 01:42:55 | 1.20 GB
Genre: Crime

A first time drug mule is caught by law enforcement.



General
Complete name : The.Mule.2014.UNRATED.HDRip.XviD.MP3-RARBG.avi
Format : AVI
Format/Info : Audio Video Interleave
File size : 1.21 GiB
Duration : 1h 42mn
Overall bit rate : 1 679 Kbps
Movie name : RARBG.COM - The.Mule.2014.UNRATED.HDRip.XviD.MP3-RARBG
Writing library : VirtualDub build 35491/release
Comment : RARBG.COM - The.Mule.2014.UNRATED.HDRip.XviD.MP3-RARBG

Video
ID : 0
Format : MPEG-4 Visual
Format profile : Simple@L5
Format settings, BVOP : No
Format settings, QPel : No
Format settings, GMC : No warppoints
Format settings, Matrix : Default (H.263)
Codec ID : XVID
Codec ID/Hint : XviD
Duration : 1h 42mn
Bit rate : 1 475 Kbps
Width : 720 pixels
Height : 304 pixels
Display aspect ratio : 2.35:1
Frame rate : 23.976 fps
Color space : YUV
Chroma subsampling : 4:2:0
Bit depth : 8 bits
Scan type : Progressive
Compression mode : Lossy
Bits/(Pixel*Frame) : 0.281
Stream size : 1.06 GiB (88%)
Writing library : Lavc56.1.100

Audio
ID : 1
Format : MPEG Audio
Format version : Version 1
Format profile : Layer 3
Mode : Joint stereo
Mode extension : MS Stereo
Codec ID : 55
Codec ID/Hint : MP3
Duration : 1h 42mn
Bit rate mode : Constant
Bit rate : 192 Kbps
Channel(s) : 2 channels
Sampling rate : 48.0 KHz
Compression mode : Lossy
Stream size : 141 MiB (11%)
Alignment : Aligned on interleaves
Interleave, duration : 24 ms (0.58 video frame)
Interleave, preload duration : 504 ms



Screenshots

The Mule (2014)

The Mule (2014)

The Mule (2014)


Come Visit My Blog (•‿•)