The National Health (1973)

Posted By: Without
The National Health (1973)

The National Health (1973)
BDRip 720p | MKV | 1264x720 | AVC@5761 kb/s | English AC3@640 kb/s
1 channel | 1 h 37 min | 4.37 GB
BDRip 1080p | MKV | 1888x1080 | AVC@8965 kb/s | English AC3@640 kb/s
1 channel | 1 h 37 min | 6.56 GB
Genre: Comedy

The British National Health System is skewered in this comedy set in a rundown London hospital. The hospital is filled with wacky staff members and patients, and the film strives to get all it can from their humorous escapades. The movie also includes a satire-within-a-satire, with "Nurse Norton's Affair" providing a send-up of TV hospital soap operas.

IMDB - Nominated for 1 BAFTA Film Award. Another 1 win


General
The.National.Health.1973.720p.BluRay.x264-SPOOKS\the.national.health.1973.720p.bluray.x264-spooks.mkv
Format : Matroska
Format version : Version 4 / Version 2
File size : 4.37 GiB
Duration : 1 h 37 min
Overall bit rate : 6 400 kb/s
Encoded date : UTC 2017-09-03 19:06:36
Writing application : mkvmerge v13.0.0 ('The Juggler') 64bit
Writing library : libebml v1.3.4 + libmatroska v1.4.5

Video
ID : 1
Format : AVC
Format/Info : Advanced Video Codec
Format profile : High@L4.1
Format settings, CABAC : Yes
Format settings, ReFrames : 5 frames
Codec ID : V_MPEG4/ISO/AVC
Duration : 1 h 37 min
Bit rate : 5 761 kb/s
Width : 1 264 pixels
Height : 720 pixels
Display aspect ratio : 16:9
Frame rate mode : Constant
Frame rate : 23.976 (24000/1001) FPS
Color space : YUV
Chroma subsampling : 4:2:0
Bit depth : 8 bits
Scan type : Progressive
Bits/(Pixel*Frame) : 0.264
Stream size : 3.85 GiB (88%)
Writing library : x264 core 152 r2851kMod ba24899
Encoding settings : cabac=1 / ref=5 / deblock=1:-3:-3 / analyse=0x3:0x133 / me=umh / subme=8 / psy=1 / fade_compensate=0.00 / psy_rd=1.00:0.00 / mixed_ref=1 / me_range=16 / chroma_me=1 / trellis=1 / 8x8dct=1 / cqm=0 / deadzone=21,11 / fast_pskip=0 / chroma_qp_offset=-2 / threads=6 / lookahead_threads=1 / sliced_threads=0 / nr=0 / decimate=1 / interlaced=0 / bluray_compat=0 / constrained_intra=0 / bframes=3 / b_pyramid=2 / b_adapt=1 / b_bias=0 / direct=3 / weightb=1 / open_gop=0 / weightp=2 / keyint=250 / keyint_min=23 / scenecut=40 / intra_refresh=0 / rc_lookahead=50 / rc=2pass / mbtree=1 / bitrate=5761 / ratetol=1.0 / qcomp=0.60 / qpmin=0 / qpmax=69 / qpstep=4 / cplxblur=20.0 / qblur=0.5 / vbv_maxrate=62500 / vbv_bufsize=78125 / nal_hrd=none / filler=0 / ip_ratio=1.40 / aq=1:1.00
Default : Yes
Forced : No

Audio
ID : 2
Format : AC-3
Format/Info : Audio Coding 3
Mode extension : CM (complete main)
Format settings, Endianness : Big
Codec ID : A_AC3
Duration : 1 h 37 min
Bit rate mode : Constant
Bit rate : 640 kb/s
Channel(s) : 1 channel
Channel positions : Front: C
Sampling rate : 48.0 kHz
Frame rate : 31.250 FPS (1536 spf)
Bit depth : 16 bits
Compression mode : Lossy
Stream size : 447 MiB (10%)
Language : English
Default : Yes
Forced : No

Menu
00:00:00.000 : en:00:00:00.000
00:07:43.463 : en:00:07:43.463
00:18:23.060 : en:00:18:23.060
00:24:11.700 : en:00:24:11.700
00:30:49.848 : en:00:30:49.848
00:38:10.330 : en:00:38:10.330
00:47:34.477 : en:00:47:34.477
00:56:58.248 : en:00:56:58.248
01:05:08.905 : en:01:05:08.905
01:13:21.981 : en:01:13:21.981
01:19:41.819 : en:01:19:41.819
01:27:14.771 : en:01:27:14.771

General
The.National.Health.1973.1080p.BluRay.x264-SPOOKS\the.national.health.1973.1080p.bluray.x264-spooks.mkv
Format : Matroska
Format version : Version 4 / Version 2
File size : 6.56 GiB
Duration : 1 h 37 min
Overall bit rate : 9 603 kb/s
Encoded date : UTC 2017-09-03 16:39:51
Writing application : mkvmerge v13.0.0 ('The Juggler') 64bit
Writing library : libebml v1.3.4 + libmatroska v1.4.5

Video
ID : 1
Format : AVC
Format/Info : Advanced Video Codec
Format profile : High@L4.1
Format settings, CABAC : Yes
Format settings, ReFrames : 4 frames
Codec ID : V_MPEG4/ISO/AVC
Duration : 1 h 37 min
Bit rate : 8 965 kb/s
Width : 1 888 pixels
Height : 1 080 pixels
Display aspect ratio : 16:9
Frame rate mode : Constant
Frame rate : 23.976 (24000/1001) FPS
Color space : YUV
Chroma subsampling : 4:2:0
Bit depth : 8 bits
Scan type : Progressive
Bits/(Pixel*Frame) : 0.183
Stream size : 5.99 GiB (91%)
Writing library : x264 core 152 r2851kMod ba24899
Encoding settings : cabac=1 / ref=4 / deblock=1:-3:-3 / analyse=0x3:0x133 / me=umh / subme=8 / psy=1 / fade_compensate=0.00 / psy_rd=1.00:0.00 / mixed_ref=1 / me_range=16 / chroma_me=1 / trellis=1 / 8x8dct=1 / cqm=0 / deadzone=21,11 / fast_pskip=0 / chroma_qp_offset=-2 / threads=6 / lookahead_threads=1 / sliced_threads=0 / nr=0 / decimate=1 / interlaced=0 / bluray_compat=0 / constrained_intra=0 / bframes=3 / b_pyramid=2 / b_adapt=1 / b_bias=0 / direct=3 / weightb=1 / open_gop=0 / weightp=2 / keyint=250 / keyint_min=23 / scenecut=40 / intra_refresh=0 / rc_lookahead=50 / rc=2pass / mbtree=1 / bitrate=8965 / ratetol=1.0 / qcomp=0.60 / qpmin=0 / qpmax=69 / qpstep=4 / cplxblur=20.0 / qblur=0.5 / vbv_maxrate=62500 / vbv_bufsize=78125 / nal_hrd=none / filler=0 / ip_ratio=1.40 / aq=1:1.00
Default : Yes
Forced : No

Audio
ID : 2
Format : AC-3
Format/Info : Audio Coding 3
Mode extension : CM (complete main)
Format settings, Endianness : Big
Codec ID : A_AC3
Duration : 1 h 37 min
Bit rate mode : Constant
Bit rate : 640 kb/s
Channel(s) : 1 channel
Channel positions : Front: C
Sampling rate : 48.0 kHz
Frame rate : 31.250 FPS (1536 spf)
Bit depth : 16 bits
Compression mode : Lossy
Stream size : 447 MiB (7%)
Language : English
Default : Yes
Forced : No

Menu
00:00:00.000 : en:00:00:00.000
00:07:43.463 : en:00:07:43.463
00:18:23.060 : en:00:18:23.060
00:24:11.700 : en:00:24:11.700
00:30:49.848 : en:00:30:49.848
00:38:10.330 : en:00:38:10.330
00:47:34.477 : en:00:47:34.477
00:56:58.248 : en:00:56:58.248
01:05:08.905 : en:01:05:08.905
01:13:21.981 : en:01:13:21.981
01:19:41.819 : en:01:19:41.819
01:27:14.771 : en:01:27:14.771


BDRip 720p Screenshots

The 			  		 	 	  		 	    	 			   			     		      	 			   		   	  		  		  		  	   	 			   		   	  		    			 National Health (1973)

The National Health (1973)

The National Health (1973)


BDRip 1080p Screenshots

The National Health (1973)

The National Health (1973)

The National Health (1973)


Come Visit My Blog (•‿•)