The Perks of Being a Wallflower (2012)

Posted By: NaVi7
The Perks of Being a Wallflower (2012)

The Perks of Being a Wallflower (2012)
BDRip 480p | AVI / XVID, 1646 Kbps | 720x400 | 1h 42mn | 1.51 GB | English: AC3, 448 Kbps (6 ch)
BDRip | AVI / XVID, 820 Kbps | 624x352 | 1h 42mn | 701 MB | English: MP3, 128 Kbps (2 ch)
Genre: Drama | Romance

Based on the novel written by Stephen Chbosky, this is about 15-year-old Charlie (Logan Lerman), an endearing and naive outsider, coping with first love (Emma Watson), the suicide of his best friend, and his own mental illness while struggling to find a group of people with whom he belongs. The introvert freshman is taken under the wings of two seniors, Sam and Patrick, who welcome him to the real world.

imdb - Top 250 #209 | 7 wins & 18 nominations.

General
Complete name : The.Perks.of.Being.a.Wallflower.2012.480p.BRRip.XviD.AC3-PTpOWeR.avi
Format : AVI
Format/Info : Audio Video Interleave
File size : 1.51 GiB
Duration : 1h 42mn
Overall bit rate : 2 104 Kbps
Writing application : VirtualDubMod 1.5.10.2 (build 2540/release)
Writing library : VirtualDubMod build 2540/release

Video
ID : 0
Format : MPEG-4 Visual
Format profile : Advanced Simple@L5
Format settings, BVOP : 2
Format settings, QPel : No
Format settings, GMC : No warppoints
Format settings, Matrix : Default (H.263)
Muxing mode : Packed bitstream
Codec ID : XVID
Codec ID/Hint : XviD
Duration : 1h 42mn
Bit rate : 1 646 Kbps
Width : 720 pixels
Height : 400 pixels
Display aspect ratio : 16:9
Frame rate : 23.976 fps
Color space : YUV
Chroma subsampling : 4:2:0
Bit depth : 8 bits
Scan type : Progressive
Compression mode : Lossy
Bits/(Pixel*Frame) : 0.238
Stream size : 1.18 GiB (78%)
Writing library : XviD 63

Audio
ID : 1
Format : AC-3
Format/Info : Audio Coding 3
Mode extension : CM (complete main)
Format settings, Endianness : Big
Codec ID : 2000
Duration : 1h 42mn
Bit rate mode : Constant
Bit rate : 448 Kbps
Channel(s) : 6 channels
Channel positions : Front: L C R, Side: L R, LFE
Sampling rate : 48.0 KHz
Bit depth : 16 bits
Compression mode : Lossy
Stream size : 329 MiB (21%)
Alignment : Split accross interleaves
Interleave, duration : 42 ms (1.00 video frame)
Interleave, preload duration : 500 ms

General
Complete name : sparks-tpobaw-xvid.avi
Format : AVI
Format/Info : Audio Video Interleave
File size : 701 MiB
Duration : 1h 42mn
Overall bit rate mode : Variable
Overall bit rate : 955 Kbps
Writing application : VirtualDubMod 1.5.10.2 (build 2540/release)
Writing library : VirtualDubMod build 2540/release

Video
ID : 0
Format : MPEG-4 Visual
Format profile : Advanced Simple@L5
Format settings, BVOP : 2
Format settings, QPel : No
Format settings, GMC : No warppoints
Format settings, Matrix : Default (H.263)
Codec ID : XVID
Codec ID/Hint : XviD
Duration : 1h 42mn
Bit rate : 820 Kbps
Width : 624 pixels
Height : 352 pixels
Display aspect ratio : 16:9
Frame rate : 23.976 fps
Color space : YUV
Chroma subsampling : 4:2:0
Bit depth : 8 bits
Scan type : Progressive
Compression mode : Lossy
Bits/(Pixel*Frame) : 0.156
Stream size : 602 MiB (86%)
Writing library : XviD 61

Audio
ID : 1
Format : MPEG Audio
Format version : Version 1
Format profile : Layer 3
Mode : Joint stereo
Mode extension : MS Stereo
Codec ID : 55
Codec ID/Hint : MP3
Duration : 1h 42mn
Bit rate mode : Variable
Bit rate : 128 Kbps
Channel(s) : 2 channels
Sampling rate : 48.0 KHz
Compression mode : Lossy
Stream size : 89.6 MiB (13%)
Alignment : Aligned on interleaves
Interleave, duration : 24 ms (0.58 video frame)
Interleave, preload duration : 151 ms
Writing library : LAME3.98
Encoding settings : -m j -V 4 -q 2 -lowpass 17 –abr 128


screenshots - BDRip 480p:

The Perks of Being a Wallflower (2012)

The Perks of Being a Wallflower (2012)

The Perks of Being a Wallflower (2012)


screenshots - BDRip:

The Perks of Being a Wallflower (2012)

The Perks of Being a Wallflower (2012)

The Perks of Being a Wallflower (2012)


Welcome to My Blog!

Subscribe to My Newsletter!

No more mirrors!

If you want to download it, but found out that links are dead, just leave a comment or PM me!
Download Links:
Uploaded | Rapidgator - BDRip 480p
Uploaded | Rapidgator - BDRip
Links to RapidGator and Uploaded are inside the html file. Download the file and open it in your browser.