The Perks of Being a Wallflower (2012)

Posted By: NaVi7
The Perks of Being a Wallflower (2012)

The Perks of Being a Wallflower (2012)
DVDRip | AVI / XVID, 1446 Kbps | 624x336 | 1h 42mn | 1.36 GB | Francais: AC3, 448 Kbps (6 ch) | Sous-titres: aucun
DVDRip | AVI / XVID, 824 Kbps | 640x352 | 1h 42mn | 701 MB | Francais: MP3, 118 Kbps (2 ch) | Sous-titres: aucun
DVD5 | NTSC 16:9 (720x480) VBR | 1h 42mn | 4.38 GB | Francais / English: Dolby AC3, 6 ch | Sous-titres: Francais, English
Genre: Drame | Romance

Au lycée où il vient d'arriver, on trouve Charlie bizarre. Sa sensibilité et ses goûts sont en décalage avec ceux de ses camarades de classe. Pour son prof de Lettres, c'est sans doute un prodige, pour les autres, c'est juste un "loser". En attendant, il reste en marge - jusqu'au jour où deux terminales, Patrick et la jolie Sam, le prennent sous leur aile. Grâce à eux, il va découvrir la musique, les fêtes, le sexe? pour Charlie, un nouveau monde s'offre à lui.

imdb - Top 250 #218 | 7 wins & 18 nominations.

General
Complete name : tpb.tmb.avi
Format : AVI
Format/Info : Audio Video Interleave
File size : 1.36 GiB
Duration : 1h 42mn
Overall bit rate : 1 903 Kbps

Video
ID : 0
Format : MPEG-4 Visual
Format profile : Advanced Simple@L5
Format settings, BVOP : 1
Format settings, QPel : No
Format settings, GMC : No warppoints
Format settings, Matrix : Default (MPEG)
Muxing mode : Packed bitstream
Codec ID : XVID
Codec ID/Hint : XviD
Duration : 1h 42mn
Bit rate : 1 446 Kbps
Width : 624 pixels
Height : 336 pixels
Display aspect ratio : 1.85:1
Frame rate : 23.976 fps
Color space : YUV
Chroma subsampling : 4:2:0
Bit depth : 8 bits
Scan type : Progressive
Compression mode : Lossy
Bits/(Pixel*Frame) : 0.288
Stream size : 1.04 GiB (76%)
Writing library : XviD 1.2.1 (UTC 2008-12-04)

Audio
ID : 1
Format : AC-3
Format/Info : Audio Coding 3
Mode extension : CM (complete main)
Format settings, Endianness : Big
Codec ID : 2000
Duration : 1h 42mn
Source duration : 1h 42mn
Bit rate mode : Constant
Bit rate : 448 Kbps
Channel(s) : 6 channels
Channel positions : Front: L C R, Side: L R, LFE
Sampling rate : 48.0 KHz
Bit depth : 16 bits
Compression mode : Lossy
Stream size : 329 MiB (24%)
Alignment : Aligned on interleaves
Interleave, duration : 42 ms (1.00 video frame)

General
Complete name : nrd-perkflower.avi
Format : AVI
Format/Info : Audio Video Interleave
File size : 701 MiB
Duration : 1h 42mn
Overall bit rate mode : Variable
Overall bit rate : 954 Kbps
Writing application : VirtualDubMod 1.5.10.2 (build 2540/release)
Writing library : VirtualDubMod build 2540/release

Video
ID : 0
Format : MPEG-4 Visual
Format profile : Advanced Simple@L5
Format settings, BVOP : 2
Format settings, QPel : No
Format settings, GMC : No warppoints
Format settings, Matrix : Default (H.263)
Codec ID : XVID
Codec ID/Hint : XviD
Duration : 1h 42mn
Bit rate : 824 Kbps
Width : 640 pixels
Height : 352 pixels
Display aspect ratio : 16:9
Frame rate : 23.976 fps
Color space : YUV
Chroma subsampling : 4:2:0
Bit depth : 8 bits
Scan type : Progressive
Compression mode : Lossy
Bits/(Pixel*Frame) : 0.153
Stream size : 605 MiB (86%)
Writing library : XviD 63

Audio
ID : 1
Format : MPEG Audio
Format version : Version 1
Format profile : Layer 3
Mode : Joint stereo
Mode extension : MS Stereo
Codec ID : 55
Codec ID/Hint : MP3
Duration : 1h 42mn
Bit rate mode : Variable
Bit rate : 118 Kbps
Nominal bit rate : 128 Kbps
Channel(s) : 2 channels
Sampling rate : 48.0 KHz
Compression mode : Lossy
Stream size : 86.3 MiB (12%)
Alignment : Aligned on interleaves
Interleave, duration : 24 ms (0.58 video frame)
Interleave, preload duration : 156 ms
Writing library : LAME3.92
Encoding settings : -m j -V 0 -q 2 -lowpass 15.3 –abr 128

Title: futil-the.perks.of.being.a.wallflower.dvdr
Size: 4.38 Gb ( 4,588,368.00 KBytes ) - DVD-5
Enabled regions: 1, 2, 3, 4, 5, 6, 7, 8

VTS_01 :
Play Length: 01:42:32
Video: NTSC 16:9 (720x480) VBR, Auto Letterboxed
Audio:
English (Dolby AC3, 6 ch)
Francais (Dolby AC3, 6 ch)
Subtitles:
English
Francais


Les captures d'ecran - DVDRip 1.36 GB:

The Perks of Being a Wallflower (2012)

The Perks of Being a Wallflower (2012)

The Perks of Being a Wallflower (2012)


Les captures d'ecran - DVDRip 701 MB:

The Perks of Being a Wallflower (2012)

The Perks of Being a Wallflower (2012)

The Perks of Being a Wallflower (2012)


Les captures d'ecran - DVD5:

The Perks of Being a Wallflower (2012)

The Perks of Being a Wallflower (2012)

The Perks of Being a Wallflower (2012)


Bienvenue sur mon blog!

Abonnez-vous a ma newsletter!

Pas plus de miroirs!

Si vous voulez le telecharger, mais j'ai decouvert que les liens sont morts, il suffit de laisser un commentaire ou me PM!
Download Links:
Uploaded | Rapidgator - DVDRip 1.36 GB
Uploaded | Rapidgator - DVDRip 701 MB
Uploaded | Rapidgator - DVD5
Liens vers RapidGator et Uploaded sont dans le fichier html. Telechargez le fichier et l'ouvrir dans votre navigateur.