The Pill (2011)

Posted By: NaVi7
The Pill (2011)

The Pill (2011)
DVDRip | AVI / XVID, 2388 Kbps | 640x352 | 1h 22mn | 1.48 GB | English: MP3, 160 Kbps (2 ch)
DVDRip | AVI / XVID, 979 Kbps | 624x352 | 1h 22mn | 700 MB | English: MP3, 192 Kbps (2 ch)
DVD5 | NTSC 16:9 (720x480) VBR | 1h 22mn | 4.20 GB | English: Dolby AC3, 2 ch
Genre: Comedy | Drama | Romance

Worried that he has gotten the free-spirited Mindy pregnant after an unprotected one-night stand, Fred feigns romantic interest and sticks by her side for twelve hours to make sure she takes both doses of the morning-after pill.

imdb - 6 wins.

General
Complete name : excess-xvid-tp.avi
Format : AVI
Format/Info : Audio Video Interleave
File size : 1.48 GiB
Duration : 1h 22mn
Overall bit rate : 2 557 Kbps
Writing application : VirtualDubMod 1.5.10.2 (build 2540/release)
Writing library : VirtualDubMod build 2540/release

Video
ID : 0
Format : MPEG-4 Visual
Format profile : Advanced Simple@L5
Format settings, BVOP : 2
Format settings, QPel : No
Format settings, GMC : No warppoints
Format settings, Matrix : Default (H.263)
Muxing mode : Packed bitstream
Codec ID : XVID
Codec ID/Hint : XviD
Duration : 1h 22mn
Bit rate : 2 388 Kbps
Width : 640 pixels
Height : 352 pixels
Display aspect ratio : 16:9
Frame rate : 23.976 fps
Color space : YUV
Chroma subsampling : 4:2:0
Bit depth : 8 bits
Scan type : Progressive
Compression mode : Lossy
Bits/(Pixel*Frame) : 0.442
Stream size : 1.38 GiB (93%)
Writing library : XviD 1.2.1 (UTC 2008-12-04)

Audio
ID : 1
Format : MPEG Audio
Format version : Version 1
Format profile : Layer 3
Mode : Joint stereo
Mode extension : MS Stereo
Codec ID : 55
Codec ID/Hint : MP3
Duration : 1h 22mn
Bit rate mode : Constant
Bit rate : 160 Kbps
Channel(s) : 2 channels
Sampling rate : 44.1 KHz
Compression mode : Lossy
Stream size : 94.9 MiB (6%)
Alignment : Split accross interleaves
Interleave, duration : 42 ms (1.00 video frame)
Interleave, preload duration : 500 ms
Writing library : LAME3.98.2

General
Complete name : iguana-tp.xvid.avi
Format : AVI
Format/Info : Audio Video Interleave
File size : 700 MiB
Duration : 1h 22mn
Overall bit rate : 1 180 Kbps
Writing application : VirtualDubMod 1.5.10.2 (build 2540/release)
Writing library : VirtualDubMod build 2540/release

Video
ID : 0
Format : MPEG-4 Visual
Format profile : Advanced Simple@L5
Format settings, BVOP : 2
Format settings, QPel : No
Format settings, GMC : No warppoints
Format settings, Matrix : Default (H.263)
Muxing mode : Packed bitstream
Codec ID : XVID
Codec ID/Hint : XviD
Duration : 1h 22mn
Bit rate : 979 Kbps
Width : 624 pixels
Height : 352 pixels
Display aspect ratio : 16:9
Frame rate : 23.976 fps
Color space : YUV
Chroma subsampling : 4:2:0
Bit depth : 8 bits
Scan type : Progressive
Compression mode : Lossy
Bits/(Pixel*Frame) : 0.186
Stream size : 581 MiB (83%)
Writing library : XviD 64

Audio
ID : 1
Format : AC-3
Format/Info : Audio Coding 3
Mode extension : CM (complete main)
Format settings, Endianness : Big
Codec ID : 2000
Duration : 1h 22mn
Bit rate mode : Constant
Bit rate : 192 Kbps
Channel(s) : 2 channels
Channel positions : Front: L R
Sampling rate : 48.0 KHz
Bit depth : 16 bits
Compression mode : Lossy
Delay relative to video : 16ms
Stream size : 114 MiB (16%)
Alignment : Split accross interleaves
Interleave, duration : 42 ms (1.00 video frame)
Interleave, preload duration : 500 ms

Title: iguana-tp.dvdr
Size: 4.20 Gb ( 4,407,890.00 KBytes ) - DVD-5
Enabled regions: 1, 2, 3, 4, 5, 6, 7, 8

VTS_01 :
Play Length: 01:22:51
Video: NTSC 16:9 (720x480) VBR, Auto Letterboxed
Audio:
English (Dolby AC3, 2 ch)


screenshots - DVDRip 1.48 GB:

The Pill (2011)

The Pill (2011)

The Pill (2011)


screenshots - DVDRip 700 MB:

The Pill (2011)

The Pill (2011)

The Pill (2011)


screenshots - DVD5:

The Pill (2011)

The Pill (2011)

The Pill (2011)


Welcome to My Blog!

Subscribe to My Newsletter!

No more mirrors!

If you want to download it, but found out that links are dead, just leave a comment or PM me!
Download Links:
Uploaded | Rapidgator - DVDRip 1.48 GB
Uploaded | Rapidgator - DVDRip 700 MB
Uploaded | Rapidgator - DVD5
Links to RapidGator and Uploaded are inside the html file. Download the file and open it in your browser.