The Revenant (2015)

Posted By: Without
The Revenant (2015)

The Revenant (2015)
BDRip | AVI | 720x300 | XviD@1125 Kbps | French MP3@128 Kbps | 2 channels | 2h 36mn | 1.38 GB
BDRip 720p | MKV | 1280x536 | AVC@4554 Kbps | French AC3@448 Kbps | Subs: French | 6 channels | 2h 36mn | 5.46 GB
Genre: Adventure, Drama, Thriller

Dans une Amérique profondément sauvage, Hugh Glass, un trappeur, est attaqué par un ours et grièvement blessé. Abandonné par ses équipiers, il est laissé pour mort. Mais Glass refuse de mourir. Seul, armé de sa volonté et porté par l’amour qu’il voue à sa femme et à leur fils, Glass entreprend un voyage de plus de 300 km dans un environnement hostile, sur la piste de l’homme qui l’a trahi. Sa soif de vengeance va se transformer en une lutte héroïque pour braver tous les obstacles, revenir chez lui et trouver la rédemption.



General
Complete name : The.Revenant.2015.FRENCH.BDRip.XViD-FUNKKY.avi
Format : AVI
Format/Info : Audio Video Interleave
Format profile : OpenDML
File size : 1.38 GiB
Duration : 2h 36mn
Overall bit rate : 1 268 Kbps
Writing application : Lavf55.18.104

Video
ID : 0
Format : xvid
Codec ID : xvid
Duration : 2h 36mn
Bit rate : 1 125 Kbps
Width : 720 pixels
Height : 300 pixels
Display aspect ratio : 2.40:1
Frame rate : 23.976 fps
Scan type : Progressive
Bits/(Pixel*Frame) : 0.217
Stream size : 1.23 GiB (89%)

Audio
ID : 1
Format : MPEG Audio
Format version : Version 1
Format profile : Layer 3
Mode : Joint stereo
Mode extension : MS Stereo
Codec ID : 55
Codec ID/Hint : MP3
Duration : 2h 36mn
Bit rate mode : Constant
Bit rate : 128 Kbps
Channel(s) : 2 channels
Sampling rate : 48.0 KHz
Compression mode : Lossy
Stream size : 143 MiB (10%)
Alignment : Aligned on interleaves
Interleave, duration : 24 ms (0.58 video frame)
Interleave, preload duration : 24 ms

General
Unique ID : 202337238536955651216990938458934138492 (0x9838BC126F570D81952417986F4AD67C)
Complete name : The.Revenant.2015.FRENCH.720p.BluRay.x264-VENUE.mkv
Format : Matroska
Format version : Version 4 / Version 2
File size : 5.46 GiB
Duration : 2h 36mn
Overall bit rate : 5 003 Kbps
Encoded date : UTC 2016-04-08 22:09:11
Writing application : mkvmerge v8.3.0 ('Over the Horizon') 64bit
Writing library : libebml v1.3.1 + libmatroska v1.4.2

Video
ID : 1
Format : AVC
Format/Info : Advanced Video Codec
Format profile : High@L4.1
Format settings, CABAC : Yes
Format settings, ReFrames : 5 frames
Codec ID : V_MPEG4/ISO/AVC
Duration : 2h 36mn
Bit rate : 4 554 Kbps
Width : 1 280 pixels
Height : 536 pixels
Display aspect ratio : 2.40:1
Frame rate mode : Constant
Frame rate : 23.976 fps
Color space : YUV
Chroma subsampling : 4:2:0
Bit depth : 8 bits
Scan type : Progressive
Bits/(Pixel*Frame) : 0.277
Stream size : 4.97 GiB (91%)
Writing library : x264 core 148 r2665 a01e339
Encoding settings : cabac=1 / ref=5 / deblock=1:0:0 / analyse=0x3:0x133 / me=umh / subme=7 / psy=1 / psy_rd=1.00:0.00 / mixed_ref=1 / me_range=16 / chroma_me=1 / trellis=1 / 8x8dct=1 / cqm=0 / deadzone=21,11 / fast_pskip=0 / chroma_qp_offset=-2 / threads=12 / lookahead_threads=2 / sliced_threads=0 / nr=0 / decimate=1 / interlaced=0 / bluray_compat=0 / constrained_intra=0 / bframes=3 / b_pyramid=2 / b_adapt=1 / b_bias=0 / direct=1 / weightb=1 / open_gop=0 / weightp=2 / keyint=250 / keyint_min=23 / scenecut=40 / intra_refresh=0 / rc_lookahead=40 / rc=2pass / mbtree=1 / bitrate=4554 / ratetol=1.0 / qcomp=0.60 / qpmin=0 / qpmax=69 / qpstep=4 / cplxblur=20.0 / qblur=0.5 / ip_ratio=1.40 / aq=1:1.00
Language : English
Default : Yes
Forced : No

Audio
ID : 2
Format : AC-3
Format/Info : Audio Coding 3
Mode extension : CM (complete main)
Format settings, Endianness : Big
Codec ID : A_AC3
Duration : 2h 36mn
Bit rate mode : Constant
Bit rate : 448 Kbps
Channel(s) : 6 channels
Channel positions : Front: L C R, Side: L R, LFE
Sampling rate : 48.0 KHz
Frame rate : 31.250 fps (1536 spf)
Compression mode : Lossy
Stream size : 501 MiB (9%)
Language : French
Default : Yes
Forced : No

Text #1
ID : 3
Format : UTF-8
Codec ID : S_TEXT/UTF8
Codec ID/Info : UTF-8 Plain Text
Duration : 2h 35mn
Bit rate : 23 bps
Count of elements : 805
Stream size : 27.2 KiB (0%)
Language : French
Default : No
Forced : No

Text #2
ID : 4
Format : UTF-8
Codec ID : S_TEXT/UTF8
Codec ID/Info : UTF-8 Plain Text
Duration : 2h 35mn
Bit rate : 2 bps
Count of elements : 113
Stream size : 3.36 KiB (0%)
Title : Forced
Language : French
Default : Yes
Forced : Yes

Menu
00:00:00.000 : en:00:00:00.000
00:05:04.846 : en:00:05:04.846
00:07:58.311 : en:00:07:58.311
00:13:18.965 : en:00:13:18.965
00:21:10.686 : en:00:21:10.686
00:28:21.658 : en:00:28:21.658
00:37:07.767 : en:00:37:07.767
00:44:00.346 : en:00:44:00.346
00:48:14.975 : en:00:48:14.975
00:51:42.266 : en:00:51:42.266
00:56:51.033 : en:00:56:51.033
00:59:50.754 : en:00:59:50.754
01:03:31.766 : en:01:03:31.766
01:11:52.433 : en:01:11:52.433
01:16:36.133 : en:01:16:36.133
01:21:22.377 : en:01:21:22.377
01:28:31.139 : en:01:28:31.139
01:37:29.969 : en:01:37:29.969
01:48:44.643 : en:01:48:44.643
01:53:08.782 : en:01:53:08.782
01:59:05.930 : en:01:59:05.930
02:02:56.703 : en:02:02:56.703
02:15:45.262 : en:02:15:45.262
02:22:51.021 : en:02:22:51.021


BDRip Screenshots

The Revenant (2015)

The Revenant (2015)

The Revenant (2015)


BDRip 720p Screenshots

The Revenant (2015)

The Revenant (2015)

The Revenant (2015)


Come Visit My Blog (•‿•)