The Revenant (2015)

Posted By: Without
2160p (4k UHD) / BluRay Remux IMDb
The Revenant (2015)

The Revenant (2015)
4K UHD Remux | MKV | 3840x2160 | HEVC@36.9 Mb/s | English DTS-HD MA@4606 kb/s (8 ch)
Subs: English, Spanish, French, Danish, Dutch, Finnish, German
Italian, Norwegian, Swedish | 2 h 36 min | 45.5 GB
Genre: Adventure, Drama, History

A frontiersman on a fur trading expedition in the 1820s fights for survival after being mauled by a bear and left for dead by members of his own hunting team.

IMDB - Won 3 Oscars. Another 86 wins & 181 nominations.


General
The.Revenant.2015.UHD.BluRay.2160p.DTS-HD.MA.7.1.HEVC.REMUX-FraMeSToR\The.Revenant.2015.UHD.BluRay.2160p.DTS-HD.MA.7.1.HEVC.REMUX-FraMeSToR.mkv
Format : Matroska
Format version : Version 4 / Version 2
File size : 45.5 GiB
Duration : 2 h 36 min
Overall bit rate : 41.6 Mb/s
Movie name : The Revenant 4K
Encoded date : UTC 2017-12-12 04:56:02
Writing application : mkvmerge v18.0.0 ('Apricity') 64-bit
Writing library : libebml v1.3.5 + libmatroska v1.4.8

Video
ID : 1
Format : HEVC
Format/Info : High Efficiency Video Coding
Format profile : Main 10@L5.1@High
Codec ID : V_MPEGH/ISO/HEVC
Duration : 2 h 36 min
Bit rate : 36.9 Mb/s
Width : 3 840 pixels
Height : 2 160 pixels
Display aspect ratio : 16:9
Frame rate mode : Constant
Frame rate : 23.976 (24000/1001) FPS
Color space : YUV
Chroma subsampling : 4:2:0 (Type 2)
Bit depth : 10 bits
Bits/(Pixel*Frame) : 0.186
Stream size : 40.3 GiB (89%)
Default : Yes
Forced : No
Color range : Limited
Color primaries : BT.2020
Transfer characteristics : SMPTE ST 2084
Matrix coefficients : BT.2020 non-constant
Mastering display color primaries : R: x=0.680000 y=0.320000, G: x=0.265000 y=0.690000, B: x=0.150000 y=0.060000, White point: x=0.312700 y=0.329000
Mastering display luminance : min: 0.0000 cd/m2, max: 1000.0000 cd/m2

Audio
ID : 2
Format : DTS
Format/Info : Digital Theater Systems
Format profile : MA / Core
Mode : 16
Format settings, Endianness : Big
Codec ID : A_DTS
Duration : 2 h 36 min
Bit rate mode : Variable / Constant
Bit rate : 4 606 kb/s / 1 509 kb/s
Channel(s) : 8 channels / 6 channels
Channel positions : Front: L C R, Side: L R, Back: L R, LFE / Front: L C R, Side: L R, LFE
Sampling rate : 48.0 kHz
Frame rate : 93.750 FPS (512 spf)
Bit depth : 24 bits
Compression mode : Lossless / Lossy
Stream size : 5.03 GiB (11%)
Title : DTS-HD MA 7.1
Language : English
Default : Yes
Forced : No

Text #1
ID : 3
Format : PGS
Codec ID : S_HDMV/PGS
Codec ID/Info : Picture based subtitle format used on BDs/HD-DVDs
Duration : 2 h 20 min
Bit rate : 1 342 b/s
Count of elements : 254
Stream size : 1.35 MiB (0%)
Title : English (Forced only)
Language : English
Default : Yes
Forced : Yes

Text #2
ID : 4
Format : PGS
Codec ID : S_HDMV/PGS
Codec ID/Info : Picture based subtitle format used on BDs/HD-DVDs
Duration : 2 h 25 min
Bit rate : 21.7 kb/s
Count of elements : 2533
Stream size : 22.5 MiB (0%)
Title : English (SDH)
Language : English
Default : No
Forced : No

Text #3
ID : 5
Format : PGS
Codec ID : S_HDMV/PGS
Codec ID/Info : Picture based subtitle format used on BDs/HD-DVDs
Duration : 2 h 35 min
Bit rate : 12.0 kb/s
Count of elements : 1672
Stream size : 13.3 MiB (0%)
Title : Spanish (Latin American)
Language : Spanish
Default : No
Forced : No

Text #4
ID : 6
Format : PGS
Codec ID : S_HDMV/PGS
Codec ID/Info : Picture based subtitle format used on BDs/HD-DVDs
Duration : 2 h 35 min
Bit rate : 10.7 kb/s
Count of elements : 1745
Stream size : 11.8 MiB (0%)
Title : French
Language : French
Default : No
Forced : No

Text #5
ID : 7
Format : PGS
Codec ID : S_HDMV/PGS
Codec ID/Info : Picture based subtitle format used on BDs/HD-DVDs
Duration : 2 h 35 min
Bit rate : 12.2 kb/s
Count of elements : 1574
Stream size : 13.6 MiB (0%)
Title : Danish
Language : Danish
Default : No
Forced : No

Text #6
ID : 8
Format : PGS
Codec ID : S_HDMV/PGS
Codec ID/Info : Picture based subtitle format used on BDs/HD-DVDs
Duration : 2 h 35 min
Bit rate : 11.2 kb/s
Count of elements : 1622
Stream size : 12.4 MiB (0%)
Title : Dutch
Language : Dutch
Default : No
Forced : No

Text #7
ID : 9
Format : PGS
Codec ID : S_HDMV/PGS
Codec ID/Info : Picture based subtitle format used on BDs/HD-DVDs
Duration : 2 h 35 min
Bit rate : 10.6 kb/s
Count of elements : 1673
Stream size : 11.8 MiB (0%)
Title : Finnish
Language : Finnish
Default : No
Forced : No

Text #8
ID : 10
Format : PGS
Codec ID : S_HDMV/PGS
Codec ID/Info : Picture based subtitle format used on BDs/HD-DVDs
Duration : 2 h 35 min
Bit rate : 13.9 kb/s
Count of elements : 1844
Stream size : 15.4 MiB (0%)
Title : German
Language : German
Default : No
Forced : No

Text #9
ID : 11
Format : PGS
Codec ID : S_HDMV/PGS
Codec ID/Info : Picture based subtitle format used on BDs/HD-DVDs
Duration : 2 h 35 min
Bit rate : 12.4 kb/s
Count of elements : 1688
Stream size : 13.8 MiB (0%)
Title : Italian
Language : Italian
Default : No
Forced : No

Text #10
ID : 12
Format : PGS
Codec ID : S_HDMV/PGS
Codec ID/Info : Picture based subtitle format used on BDs/HD-DVDs
Duration : 2 h 35 min
Bit rate : 11.4 kb/s
Count of elements : 1670
Stream size : 12.7 MiB (0%)
Title : Norwegian
Language : Norwegian
Default : No
Forced : No

Text #11
ID : 13
Format : PGS
Codec ID : S_HDMV/PGS
Codec ID/Info : Picture based subtitle format used on BDs/HD-DVDs
Duration : 2 h 35 min
Bit rate : 11.9 kb/s
Count of elements : 1660
Stream size : 13.2 MiB (0%)
Title : Swedish
Language : Swedish
Default : No
Forced : No

Menu
00:00:00.000 : en:Chapter 01
00:05:04.846 : en:Chapter 02
00:07:58.311 : en:Chapter 03
00:13:18.965 : en:Chapter 04
00:21:10.686 : en:Chapter 05
00:28:21.658 : en:Chapter 06
00:37:07.767 : en:Chapter 07
00:44:00.346 : en:Chapter 08
00:48:14.975 : en:Chapter 09
00:51:42.266 : en:Chapter 10
00:56:51.033 : en:Chapter 11
00:59:50.754 : en:Chapter 12
01:03:31.766 : en:Chapter 13
01:11:52.433 : en:Chapter 14
01:16:36.133 : en:Chapter 15
01:21:22.377 : en:Chapter 16
01:28:31.139 : en:Chapter 17
01:37:29.969 : en:Chapter 18
01:48:44.643 : en:Chapter 19
01:53:08.782 : en:Chapter 20
01:59:05.930 : en:Chapter 21
02:02:56.703 : en:Chapter 22
02:15:45.262 : en:Chapter 23
02:22:51.021 : en:Chapter 24


Screenshots

The Revenant (2015)

The Revenant (2015)

The Revenant (2015)

The Revenant (2015)

The Revenant (2015)

The Revenant (2015)

The Revenant (2015)


Come Visit My Blog (•‿•)