The Twilight Saga: Breaking Dawn - Part 2 / Twilight - Chapitre 5 : Révélation 2e partie (2012)

Posted By: NaVi7
The Twilight Saga: Breaking Dawn - Part 2 / Twilight - Chapitre 5 : Révélation 2e partie (2012)

The Twilight Saga: Breaking Dawn - Part 2 / Twilight - Chapitre 5 : Révélation 2e partie (2012)
BDRip | MKV / AVC, 1247 Kbps | 720x304 | 1h 55mn | 1.37 GB | Français: AC3, 448 Kbps (6 ch) | Sous-titres: Français
BDRip 720p | MKV / AVC, 5325 Kbps | 1280x534 | 1h 55mn | 4.65 GB | Français: AC3, 448 Kbps (6 ch) | Sous-titres: Français
BDRip 1080p | MKV / AVC, 10.3 Mbps | 1920x800 | 1h 55mn | 9.86 GB | English: DTS, 1509 Kbps (6 ch) | Français: AC3, 448 Kbps (6 ch) | Sous-titres: Français
Genre: Aventure | Drame | Fantasy | Romance

Après la naissance de sa fille Renesmée, Bella s’adapte peu à peu à sa nouvelle vie de vampire avec le soutien d’Edward. Se sentant menacés par cette naissance d’un nouveau genre, les Volturi déclarent la guerre à la famille Cullen. Pour préparer leur défense, les Cullen vont parcourir le monde pour rassembler les familles de vampires alliées et tenter de repousser les Volturi lors d’un ultime affrontement.

imdb - 1 win & 13 nominations.

General
Unique ID : 321344274204211723312200864221912006275 (0xF1C0A7F094C7F16C99A29356E5E67E83)
Complete name : The.Twilight.Saga.Breaking.Dawn.Part.2.FRENCH.BDRip.x264.AC3-TMB.mkv
Format : Matroska
Format version : Version 4 / Version 2
File size : 1.37 GiB
Duration : 1h 55mn
Overall bit rate : 1 696 Kbps
Encoded date : UTC 2013-02-22 16:08:33
Writing application : mkvmerge v6.0.0 ('Coming Up For Air') built on Jan 20 2013 10:36:39
Writing library : libebml v1.3.0 + libmatroska v1.4.0

Video
ID : 1
Format : AVC
Format/Info : Advanced Video Codec
Format profile : High@L4.1
Format settings, CABAC : Yes
Format settings, ReFrames : 7 frames
Codec ID : V_MPEG4/ISO/AVC
Duration : 1h 55mn
Bit rate : 1 247 Kbps
Width : 720 pixels
Height : 304 pixels
Display aspect ratio : 2.35:1
Frame rate mode : Constant
Frame rate : 23.976 fps
Color space : YUV
Chroma subsampling : 4:2:0
Bit depth : 8 bits
Scan type : Progressive
Bits/(Pixel*Frame) : 0.238
Stream size : 1 001 MiB (72%)
Title : English
Writing library : x264 core 129
Encoding settings : cabac=1 / ref=7 / deblock=1:-1:-1 / analyse=0x3:0 / me=umh / subme=9 / psy=1 / psy_rd=1,00:0,00 / mixed_ref=1 / me_range=32 / chroma_me=1 / trellis=2 / 8x8dct=1 / cqm=0 / deadzone=21,11 / fast_pskip=0 / chroma_qp_offset=-2 / threads=18 / lookahead_threads=3 / sliced_threads=0 / nr=0 / decimate=1 / interlaced=0 / bluray_compat=0 / constrained_intra=0 / bframes=5 / b_pyramid=2 / b_adapt=2 / b_bias=0 / direct=3 / weightb=1 / open_gop=0 / weightp=2 / keyint=240 / keyint_min=24 / scenecut=40 / intra_refresh=0 / rc_lookahead=100 / rc=2pass / mbtree=1 / bitrate=1247 / ratetol=1,0 / qcomp=0,60 / qpmin=4 / qpmax=69 / qpstep=4 / cplxblur=20,0 / qblur=0,5 / ip_ratio=1,40 / aq=1:1,00
Language : English
Default : Yes
Forced : No
Color primaries : BT.709
Transfer characteristics : BT.709
Matrix coefficients : BT.709

Audio
ID : 2
Format : AC-3
Format/Info : Audio Coding 3
Mode extension : CM (complete main)
Format settings, Endianness : Big
Codec ID : A_AC3
Duration : 1h 55mn
Bit rate mode : Constant
Bit rate : 448 Kbps
Channel(s) : 6 channels
Channel positions : Front: L C R, Side: L R, LFE
Sampling rate : 48.0 KHz
Bit depth : 16 bits
Compression mode : Lossy
Delay relative to video : 250ms
Stream size : 369 MiB (26%)
Title : French
Language : French
Default : Yes
Forced : No

Text
ID : 3
Format : UTF-8
Codec ID : S_TEXT/UTF8
Codec ID/Info : UTF-8 Plain Text
Title : Forced
Language : French
Default : Yes
Forced : No

General
Unique ID : 3034236505113653151709032147204221695 (0x2485F68E5B2AB648CC4B82C878CAAFF)
Complete name : The.Twilight.Saga.Breaking.Dawn.Part.2.2012.FRENCH.720p.BluRay.x264.AC3-TMB.mkv
Format : Matroska
Format version : Version 4 / Version 2
File size : 4.65 GiB
Duration : 1h 55mn
Overall bit rate : 5 774 Kbps
Encoded date : UTC 2013-02-22 15:20:01
Writing application : mkvmerge v6.0.0 ('Coming Up For Air') built on Jan 20 2013 10:36:39
Writing library : libebml v1.3.0 + libmatroska v1.4.0

Video
ID : 1
Format : AVC
Format/Info : Advanced Video Codec
Format profile : High@L4.1
Format settings, CABAC : Yes
Format settings, ReFrames : 10 frames
Codec ID : V_MPEG4/ISO/AVC
Duration : 1h 55mn
Bit rate : 5 325 Kbps
Width : 1 280 pixels
Height : 534 pixels
Display aspect ratio : 2.40:1
Frame rate mode : Constant
Frame rate : 23.976 fps
Color space : YUV
Chroma subsampling : 4:2:0
Bit depth : 8 bits
Scan type : Progressive
Bits/(Pixel*Frame) : 0.325
Stream size : 4.19 GiB (90%)
Title : English
Writing library : x264 core 125 r2208 d9d2288
Encoding settings : cabac=1 / ref=10 / deblock=1:-3:-3 / analyse=0x3:0x113 / me=umh / subme=10 / psy=1 / psy_rd=1.00:0.05 / mixed_ref=1 / me_range=32 / chroma_me=1 / trellis=2 / 8x8dct=1 / cqm=0 / deadzone=21,11 / fast_pskip=0 / chroma_qp_offset=-2 / threads=8 / lookahead_threads=1 / sliced_threads=0 / nr=0 / decimate=1 / interlaced=0 / bluray_compat=0 / constrained_intra=0 / bframes=5 / b_pyramid=2 / b_adapt=2 / b_bias=0 / direct=3 / weightb=1 / open_gop=0 / weightp=2 / keyint=250 / keyint_min=23 / scenecut=40 / intra_refresh=0 / rc=2pass / mbtree=0 / bitrate=5325 / ratetol=1.0 / qcomp=0.70 / qpmin=0 / qpmax=69 / qpstep=4 / cplxblur=20.0 / qblur=0.5 / ip_ratio=1.40 / pb_ratio=1.30 / aq=2:0.90
Language : English
Default : Yes
Forced : No

Audio
ID : 2
Format : AC-3
Format/Info : Audio Coding 3
Mode extension : CM (complete main)
Format settings, Endianness : Big
Codec ID : A_AC3
Duration : 1h 55mn
Bit rate mode : Constant
Bit rate : 448 Kbps
Channel(s) : 6 channels
Channel positions : Front: L C R, Side: L R, LFE
Sampling rate : 48.0 KHz
Bit depth : 16 bits
Compression mode : Lossy
Delay relative to video : 250ms
Stream size : 369 MiB (8%)
Title : French
Language : French
Default : Yes
Forced : No

Text
ID : 3
Format : UTF-8
Codec ID : S_TEXT/UTF8
Codec ID/Info : UTF-8 Plain Text
Title : Forced
Language : French
Default : Yes
Forced : No

General
Unique ID : 45155363200904186866536317535228409077 (0x21F89B4B0B425EA8E475F63176A234F5)
Complete name : The.Twilight.Saga.Breaking.Dawn.Part.2.MULTi.1080p.BluRay.x264.AC3.DTS-TMB.mkv
Format : Matroska
Format version : Version 4 / Version 2
File size : 9.86 GiB
Duration : 1h 55mn
Overall bit rate : 12.3 Mbps
Encoded date : UTC 2013-02-22 15:28:52
Writing application : mkvmerge v6.0.0 ('Coming Up For Air') built on Jan 20 2013 10:36:39
Writing library : libebml v1.3.0 + libmatroska v1.4.0

Video
ID : 1
Format : AVC
Format/Info : Advanced Video Codec
Format profile : High@L4.1
Format settings, CABAC : Yes
Format settings, ReFrames : 5 frames
Codec ID : V_MPEG4/ISO/AVC
Duration : 1h 55mn
Bit rate : 10.3 Mbps
Width : 1 920 pixels
Height : 800 pixels
Display aspect ratio : 2.40:1
Frame rate mode : Constant
Frame rate : 23.976 fps
Color space : YUV
Chroma subsampling : 4:2:0
Bit depth : 8 bits
Scan type : Progressive
Bits/(Pixel*Frame) : 0.280
Stream size : 8.09 GiB (82%)
Title : English
Writing library : x264 core 125 r2208 d9d2288
Encoding settings : cabac=1 / ref=5 / deblock=1:-3:-3 / analyse=0x3:0x113 / me=umh / subme=10 / psy=1 / psy_rd=1.00:0.05 / mixed_ref=1 / me_range=32 / chroma_me=1 / trellis=2 / 8x8dct=1 / cqm=0 / deadzone=21,11 / fast_pskip=0 / chroma_qp_offset=-2 / threads=8 / lookahead_threads=1 / sliced_threads=0 / nr=0 / decimate=1 / interlaced=0 / bluray_compat=0 / constrained_intra=0 / bframes=5 / b_pyramid=2 / b_adapt=2 / b_bias=0 / direct=3 / weightb=1 / open_gop=0 / weightp=2 / keyint=250 / keyint_min=23 / scenecut=40 / intra_refresh=0 / rc=2pass / mbtree=0 / bitrate=10295 / ratetol=1.0 / qcomp=0.70 / qpmin=0 / qpmax=69 / qpstep=4 / cplxblur=20.0 / qblur=0.5 / ip_ratio=1.40 / pb_ratio=1.30 / aq=2:1.00
Language : English
Default : Yes
Forced : No

Audio #1
ID : 2
Format : DTS
Format/Info : Digital Theater Systems
Mode : 16
Format settings, Endianness : Big
Codec ID : A_DTS
Duration : 1h 55mn
Bit rate mode : Constant
Bit rate : 1 509 Kbps
Channel(s) : 6 channels
Channel positions : Front: L C R, Side: L R, LFE
Sampling rate : 48.0 KHz
Bit depth : 24 bits
Compression mode : Lossy
Stream size : 1.21 GiB (12%)
Title : English
Language : English
Default : Yes
Forced : No

Audio #2
ID : 3
Format : AC-3
Format/Info : Audio Coding 3
Mode extension : CM (complete main)
Format settings, Endianness : Big
Codec ID : A_AC3
Duration : 1h 55mn
Bit rate mode : Constant
Bit rate : 448 Kbps
Channel(s) : 6 channels
Channel positions : Front: L C R, Side: L R, LFE
Sampling rate : 48.0 KHz
Bit depth : 16 bits
Compression mode : Lossy
Delay relative to video : 250ms
Stream size : 369 MiB (4%)
Title : French
Language : French
Default : No
Forced : No

Text #1
ID : 4
Format : UTF-8
Codec ID : S_TEXT/UTF8
Codec ID/Info : UTF-8 Plain Text
Title : French
Language : French
Default : Yes
Forced : No

Text #2
ID : 5
Format : UTF-8
Codec ID : S_TEXT/UTF8
Codec ID/Info : UTF-8 Plain Text
Title : Forced
Language : French
Default : No
Forced : No


Les captures d'ecran - BDRip:

The Twilight Saga: Breaking Dawn - Part 2 / Twilight - Chapitre 5 : Révélation 2e partie (2012)

The Twilight Saga: Breaking Dawn - Part 2 / Twilight - Chapitre 5 : Révélation 2e partie (2012)

The Twilight Saga: Breaking Dawn - Part 2 / Twilight - Chapitre 5 : Révélation 2e partie (2012)


Les captures d'ecran - BDRip 720p:

The Twilight Saga: Breaking Dawn - Part 2 / Twilight - Chapitre 5 : Révélation 2e partie (2012)

The Twilight Saga: Breaking Dawn - Part 2 / Twilight - Chapitre 5 : Révélation 2e partie (2012)

The Twilight Saga: Breaking Dawn - Part 2 / Twilight - Chapitre 5 : Révélation 2e partie (2012)


Les captures d'ecran - BDRip 1080p:

The Twilight Saga: Breaking Dawn - Part 2 / Twilight - Chapitre 5 : Révélation 2e partie (2012)

The Twilight Saga: Breaking Dawn - Part 2 / Twilight - Chapitre 5 : Révélation 2e partie (2012)

The Twilight Saga: Breaking Dawn - Part 2 / Twilight - Chapitre 5 : Révélation 2e partie (2012)


Bienvenue sur mon blog!

Abonnez-vous a ma newsletter!

Pas plus de miroirs!

Si vous voulez le telecharger, mais j'ai decouvert que les liens sont morts, il suffit de laisser un commentaire ou me PM!
Télécharger Liens:
Uploaded | Rapidgator - BDRip
Uploaded | Rapidgator - BDRip 720p
Uploaded | Rapidgator - BDRip 1080p
Liens vers RapidGator et Uploaded sont dans le fichier html. Telechargez le fichier et l'ouvrir dans votre navigateur.