The Woodmans (2011)

Posted By: Polik88
The Woodmans (2011)

BBC - Jobless (2010)
DVDRip | English | AVI/XVID 30.000 fps 323 Kbps | 852x480 | MP3 80.7 Kbps 44.1 khz | 1h 22mn | 224 MB
Genre: Documentary

The story of a family that suffers a tragedy, but perseveres and finds redemption through each other and their work – making art.
General
Complete name : The Woodmans.avi
Format : Flash Video
File size : 244 MiB
Duration : 1h 22mn
Overall bit rate : 412 Kbps
Tagged date : UTC 2011-08-23 13:43:52

Video
Format : AVC
Format/Info : Advanced Video Codec
Format profile : High@L4.1
Format settings, CABAC : Yes
Format settings, ReFrames : 4 frames
Codec ID : 7
Duration : 1h 22mn
Bit rate : 323 Kbps
Width : 852 pixels
Height : 480 pixels
Display aspect ratio : 16:9
Frame rate mode : Constant
Frame rate : 30.000 fps
Color space : YUV
Chroma subsampling : 4:2:0
Bit depth : 8 bits
Scan type : Progressive
Bits/(Pixel*Frame) : 0.026
Stream size : 193 MiB (79%)
Writing library : x264 core 115
Encoding settings : cabac=1 / ref=3 / deblock=1:-1:-1 / analyse=0x3:0x113 / me=hex / subme=7 / psy=1 / psy_rd=1.00:0.00 / mixed_ref=1 / me_range=16 / chroma_me=1 / trellis=1 / 8x8dct=1 / cqm=0 / deadzone=21,11 / fast_pskip=1 / chroma_qp_offset=-2 / threads=12 / sliced_threads=0 / nr=0 / decimate=1 / interlaced=0 / bluray_compat=0 / constrained_intra=0 / bframes=3 / b_pyramid=2 / b_adapt=0 / b_bias=0 / direct=2 / weightb=1 / open_gop=0 / weightp=0 / keyint=320 / keyint_min=25 / scenecut=40 / intra_refresh=0 / rc_lookahead=40 / rc=crf / mbtree=1 / crf=28.0 / qcomp=0.70 / qpmin=10 / qpmax=51 / qpstep=3 / ip_ratio=1.41 / aq=1:1.00

Audio
Format : AAC
Format/Info : Advanced Audio Codec
Format profile : LC
Codec ID : 10
Duration : 1h 22mn
Bit rate : 80.7 Kbps
Channel(s) : 2 channels
Channel positions : Front: L R
Sampling rate : 44.1 KHz
Compression mode : Lossy
Delay relative to video : 66ms
Stream size : 50.0 MiB (20%)

Screenshots

The Woodmans (2011)

The Woodmans (2011)

The Woodmans (2011)

no mirrors please, Follow The Rules
Visit Polik88 Blog Here
no password