The World According to Monsanto (2008)

Posted By: Polik88
The World According to Monsanto (2008)

The World According to Monsanto (2008)
English | MP4 | 720x400 | AVC 766 Kbps 29.970 fps | AAC 128 Kbps 48.0 khz | 1h 49mn | 702 MB
Genre: Documentary

The gigantic biotech corporation Monsanto is threatening to destroy the agricultural biodiversity which has served mankind for thousands of years.
The endless list of genetically modified seeds sold and controlled by Monsanto are putting at enormous risk age-old agricultural patterns under the presumptuous slogan of aiming at solving the huge problem of hunger in the world.
General
Complete name : World According to Monsanto.mp4
Format : MPEG-4
Format profile : Base Media / Version 2
Codec ID : mp42
File size : 702 MiB
Duration : 1h 49mn
Overall bit rate mode : Variable
Overall bit rate : 900 Kbps
Encoded date : UTC 2008-03-25 17:21:31
Tagged date : UTC 2008-03-25 18:38:53
Writing application : HandBrake 0.9.2 2008021900

Video
ID : 1
Format : AVC
Format/Info : Advanced Video Codec
Format profile : Main@L5.1
Format settings, CABAC : Yes
Format settings, ReFrames : 2 frames
Codec ID : avc1
Codec ID/Info : Advanced Video Coding
Duration : 1h 49mn
Bit rate mode : Variable
Bit rate : 766 Kbps
Width : 720 pixels
Height : 400 pixels
Display aspect ratio : 16:9
Frame rate mode : Variable
Frame rate : 29.970 fps
Minimum frame rate : 29.963 fps
Maximum frame rate : 29.981 fps
Color space : YUV
Chroma subsampling : 4:2:0
Bit depth : 8 bits
Scan type : Progressive
Bits/(Pixel*Frame) : 0.089
Stream size : 597 MiB (85%)
Writing library : x264 core 58 svn-736M
Encoding settings : cabac=1 / ref=2 / deblock=1:0:0 / analyse=0x1:0x111 / me=umh / subme=5 / brdo=0 / mixed_ref=0 / me_range=16 / chroma_me=1 / trellis=0 / 8x8dct=0 / cqm=0 / deadzone=21,11 / chroma_qp_offset=0 / threads=3 / nr=0 / decimate=1 / mbaff=0 / bframes=2 / b_pyramid=0 / b_adapt=1 / b_bias=0 / direct=1 / wpredb=0 / bime=0 / keyint=300 / keyint_min=30 / scenecut=40(pre) / rc=2pass / bitrate=766 / ratetol=1.0 / rceq='blurCplx^(1-qComp)' / qcomp=0.60 / qpmin=10 / qpmax=51 / qpstep=4 / cplxblur=20.0 / qblur=0.5 / ip_ratio=1.40 / pb_ratio=1.30
Language : English
Encoded date : UTC 2008-03-25 17:21:31
Tagged date : UTC 2008-03-25 18:38:53

Audio
ID : 2
Format : AAC
Format/Info : Advanced Audio Codec
Format profile : LC
Codec ID : 40
Duration : 1h 49mn
Bit rate mode : Variable
Bit rate : 128 Kbps
Maximum bit rate : 210 Kbps
Channel(s) : 2 channels
Channel positions : Front: L R
Sampling rate : 48.0 KHz
Compression mode : Lossy
Delay relative to video : -67ms
Stream size : 99.8 MiB (14%)
Language : English
Encoded date : UTC 2008-03-25 17:21:31
Tagged date : UTC 2008-03-25 18:38:53

Text
ID : 3
Format : Apple text
Codec ID : text
Duration : 1h 49mn
Bit rate mode : Constant
Bit rate : 0 bps
Stream size : 288 Bytes (0%)
Language : English
Encoded date : UTC 2008-03-25 17:21:31
Tagged date : UTC 2008-03-25 18:38:53

Screenshots

The World According to Monsanto (2008)

The World According to Monsanto (2008)

The World According to Monsanto (2008)

no mirrors please, Follow The Rules
Visit Polik88 Blog Here
no password