Thelma & Louise (1991)

Posted By: Tavaz
720p (HD) / BDRip IMDb
Thelma & Louise (1991)

Thelma & Louise (1991)
BDRip | MKV | 1216x544 | English | H264 @ 1060 kbps | AAC @ 64 kbps | 2 h 9 min | 1 023 MiB
Subtitles: Dutch
Genre: Adventure, Crime, Drama

Two best friends set out on an adventure, but it soon turns around to a terrifying escape from being hunted by the police, as these two girls escape for the crimes they committed.

Thelma.and.Louise.1991.BluRay.720p.H264.mkv (1023.3 MB)



General
Unique ID : 198709175019283519590729660460894360062 (0x957DFEBAE725BA00B1E77FEED41991FE)
Complete name : ./Thelma.and.Louise.1991.BluRay.720p.H264.mkv
Format : Matroska
Format version : Version 4 / Version 2
File size : 1 023 MiB
Duration : 2 h 9 min
Overall bit rate : 1 105 kb/s
Encoded date : UTC 2017-12-13 15:39:25
Writing application : mkvmerge v18.0.0 ('Apricity') 64-bit
Writing library : libebml v1.3.5 + libmatroska v1.4.8

Video
ID : 2
Format : AVC
Format/Info : Advanced Video Codec
Format profile : Main@L4.1
Format settings : CABAC / 8 Ref Frames
Format settings, CABAC : Yes
Format settings, RefFrames : 8 frames
Codec ID : V_MPEG4/ISO/AVC
Duration : 2 h 7 min
Bit rate : 1 060 kb/s
Width : 1 216 pixels
Height : 544 pixels
Display aspect ratio : 2.25:1
Frame rate mode : Constant
Frame rate : 23.976 (24000/1001) FPS
Color space : YUV
Chroma subsampling : 4:2:0
Bit depth : 8 bits
Scan type : Progressive
Bits/(Pixel*Frame) : 0.067
Stream size : 963 MiB (94%)
Writing library : x264 core 59
Encoding settings : cabac=1 / ref=8 / deblock=1:-2:-1 / analyse=0x1:0x131 / me=umh / subme=7 / brdo=1 / mixed_ref=1 / me_range=16 / chroma_me=1 / trellis=1 / 8x8dct=0 / cqm=0 / deadzone=21,11 / chroma_qp_offset=0 / threads=12 / nr=0 / decimate=1 / mbaff=0 / bframes=12 / b_pyramid=0 / b_adapt=1 / b_bias=0 / direct=1 / wpredb=1 / bime=0 / keyint=250 / keyint_min=25 / scenecut=40(pre) / rc=2pass / bitrate=1060 / ratetol=1.0 / rceq='blurCplx^(1-qComp)' / qcomp=1.00 / qpmin=10 / qpmax=51 / qpstep=4 / cplxblur=20.0 / qblur=0.5 / ip_ratio=1.40 / pb_ratio=1.30 / aq=2:1.00 / zones=479,675
Default : Yes
Forced : No

Audio
ID : 1
Format : AAC
Format/Info : Advanced Audio Codec
Format profile : LC
Codec ID : A_AAC-2
Duration : 2 h 7 min
Bit rate : 64.4 kb/s
Channel(s) : 2 channels
Channel positions : Front: L R
Sampling rate : 44.1 kHz
Frame rate : 43.066 FPS (1024 SPF)
Compression mode : Lossy
Delay relative to video : -42 ms
Stream size : 58.5 MiB (6%)
Default : Yes
Forced : No

Text
ID : 3
Format : UTF-8
Codec ID : S_TEXT/UTF8
Codec ID/Info : UTF-8 Plain Text
Duration : 2 h 7 min
Bit rate : 40 b/s
Count of elements : 1078
Stream size : 37.3 KiB (0%)
Language : Dutch
Default : Yes
Forced : No





Thelma & Louise (1991)


Thelma & Louise (1991)


Thelma & Louise (1991)


Thelma & Louise (1991)


Thelma & Louise (1991)