Thirst (2009) Director's Cut

Posted By: Tavaz
1080p (FullHD) / BDRip IMDb
Thirst (2009) Director's Cut

Thirst (2009) Director's Cut
BDRip | MKV | 1916x816 | Korean | H264 @ 2048 kbps | AC-3 @ 384 kbps | 2 h 27 min | 2.51 GiB
Genre: Drama, Fantasy, Horror

Sang-hyun (Song Kang-ho), a respected priest, volunteers for an experimental procedure that may lead to a cure for a deadly virus. He gets infected and dies, but a blood transfusion of unknown origin brings him back to life as a vampire. Now, Sang-hyun is torn between faith and bloodlust, and has a newfound desire for Tae-ju (Kim Ok-vin), the wife of his childhood friend.

Thirst.2009.DC.BluRay.1080p.5.1CH.x264-SmallAndHD.srt (60.4 KB)
Thirst.2009.DC.BluRay.1080p.5.1CH.x264-SmallAndHD.mkv (2.5 GB)



General
Unique ID : 164507689844310252922419428278796431938 (0x7BC3075205BC0B816793A4AE38123242)
Complete name : ./Thirst (2009)/Thirst.2009.DC.BluRay.1080p.5.1CH.x264-SmallAndHD.mkv
Format : Matroska
Format version : Version 2
File size : 2.51 GiB
Duration : 2 h 27 min
Overall bit rate : 2 437 kb/s
Movie name : Thirst.2009.DC.BluRay.1080p.5.1CH.x264-SmallAndHD
Writing application : HandBrake rev0
Writing library : libmkv 0.6.5

Video
ID : 1
Format : AVC
Format/Info : Advanced Video Codec
Format profile : High@L4
Format settings : CABAC / 4 Ref Frames
Format settings, CABAC : Yes
Format settings, RefFrames : 4 frames
Codec ID : V_MPEG4/ISO/AVC
Duration : 2 h 27 min
Bit rate : 2 048 kb/s
Width : 1 916 pixels
Height : 816 pixels
Display aspect ratio : 2.35:1
Frame rate mode : Constant
Frame rate : 23.976 (24000/1001) FPS
Color space : YUV
Chroma subsampling : 4:2:0
Bit depth : 8 bits
Scan type : Progressive
Bits/(Pixel*Frame) : 0.055
Stream size : 2.07 GiB (82%)
Writing library : x264 core 130 r2273 b3065e6
Encoding settings : cabac=1 / ref=1 / deblock=1:0:0 / analyse=0x3:0x113 / me=hex / subme=2 / psy=1 / psy_rd=1.00:0.00 / mixed_ref=0 / me_range=16 / chroma_me=1 / trellis=0 / 8x8dct=1 / cqm=0 / deadzone=21,11 / fast_pskip=1 / chroma_qp_offset=0 / threads=3 / lookahead_threads=1 / sliced_threads=0 / nr=0 / decimate=1 / interlaced=0 / bluray_compat=0 / constrained_intra=0 / bframes=3 / b_pyramid=2 / b_adapt=1 / b_bias=0 / direct=1 / weightb=1 / open_gop=0 / weightp=1 / keyint=240 / keyint_min=24 / scenecut=40 / intra_refresh=0 / rc_lookahead=10 / rc=2pass / mbtree=1 / bitrate=2048 / ratetol=1.0 / qcomp=0.60 / qpmin=0 / qpmax=69 / qpstep=4 / cplxblur=20.0 / qblur=0.5 / vbv_maxrate=25000 / vbv_bufsize=31250 / nal_hrd=none / ip_ratio=1.40 / aq=1:1.00
Language : English
Default : Yes
Forced : No
Color range : Limited
Color primaries : BT.709
Transfer characteristics : BT.709
Matrix coefficients : BT.709

Audio
ID : 2
Format : AC-3
Format/Info : Audio Coding 3
Format settings, Endianness : Big
Codec ID : A_AC3
Duration : 2 h 27 min
Bit rate mode : Constant
Bit rate : 384 kb/s
Channel(s) : 6 channels
Channel positions : Front: L C R, Side: L R, LFE
Sampling rate : 48.0 kHz
Frame rate : 31.250 FPS (1536 SPF)
Bit depth : 16 bits
Compression mode : Lossy
Stream size : 406 MiB (16%)
Language : Korean
Service kind : Complete Main
Default : Yes
Forced : No





Thirst (2009) Director's Cut


Thirst (2009) Director's Cut


Thirst (2009) Director's Cut


Thirst (2009) Director's Cut


Thirst (2009) Director's Cut