Tags
Language
Tags

Thunder at the Border (1966)

Posted By: Tavaz
720p (HD) / BDRip IMDb
Thunder at the Border (1966)

Thunder at the Border (1966)
BDRip | MKV | 1280x720 | English | H264 @ 2560 kbps | AC-3 @ 192 kbps | 1 h 34 min | 1.82 GiB
Genre: Adventure, Western

Firehand and his Apache friend Winnetou are determined to get justice for the murder of four young braves. They set off to track down the gang responsible for the horrendous act.

5212ce1dfc1e576442e6a17465572170.mkv (1.8 GB)



General
Unique ID : 235662795482513581300200849235862892125 (0xB14B00E2BD7077A2205C6CC878542E5D)
Complete name : ./5212ce1dfc1e576442e6a17465572170.mkv
Format : Matroska
Format version : Version 4 / Version 2
File size : 1.82 GiB
Duration : 1 h 34 min
Overall bit rate : 2 754 kb/s
Movie name : Thunder.at.the.Border.1966.720p.BluRay.x264-x0r
Encoded date : UTC 2020-12-29 15:40:51
Writing application : mkvmerge v7.7.0 ('Six Voices') 64bit built on Mar 1 2015 01:50:05
Writing library : libebml v1.3.1 + libmatroska v1.4.2

Video
ID : 1
Format : AVC
Format/Info : Advanced Video Codec
Format profile : High@L4
Format settings : CABAC / 8 Ref Frames
Format settings, CABAC : Yes
Format settings, RefFrames : 8 frames
Codec ID : V_MPEG4/ISO/AVC
Duration : 1 h 34 min
Bit rate : 2 560 kb/s
Width : 1 280 pixels
Height : 720 pixels
Display aspect ratio : 16:9
Frame rate mode : Constant
Frame rate : 23.976 (24000/1001) FPS
Color space : YUV
Chroma subsampling : 4:2:0
Bit depth : 8 bits
Scan type : Progressive
Bits/(Pixel*Frame) : 0.116
Stream size : 1.69 GiB (93%)
Writing library : x264 core 155 r2917 0a84d98
Encoding settings : cabac=1 / ref=8 / deblock=1:-2:-2 / analyse=0x3:0x133 / me=umh / subme=9 / psy=1 / psy_rd=1.00:0.25 / mixed_ref=1 / me_range=24 / chroma_me=1 / trellis=2 / 8x8dct=1 / cqm=0 / deadzone=21,11 / fast_pskip=1 / chroma_qp_offset=-4 / threads=22 / lookahead_threads=2 / sliced_threads=0 / nr=0 / decimate=1 / interlaced=0 / bluray_compat=0 / constrained_intra=0 / bframes=4 / b_pyramid=2 / b_adapt=2 / b_bias=0 / direct=3 / weightb=1 / open_gop=0 / weightp=2 / keyint=240 / keyint_min=24 / scenecut=40 / intra_refresh=0 / rc_lookahead=120 / rc=2pass / mbtree=1 / bitrate=2560 / ratetol=1.0 / qcomp=0.60 / qpmin=0 / qpmax=69 / qpstep=4 / cplxblur=20.0 / qblur=0.5 / vbv_maxrate=20000 / vbv_bufsize=25000 / nal_hrd=none / filler=0 / ip_ratio=1.40 / aq=1:1.00
Language : English
Default : Yes
Forced : No
Color range : Limited
Color primaries : BT.709
Transfer characteristics : BT.709
Matrix coefficients : BT.709

Audio
ID : 2
Format : AC-3
Format/Info : Audio Coding 3
Format settings, Endianness : Big
Codec ID : A_AC3
Duration : 1 h 34 min
Bit rate mode : Constant
Bit rate : 192 kb/s
Channel(s) : 2 channels
Channel positions : Front: L R
Sampling rate : 48.0 kHz
Frame rate : 31.250 FPS (1536 SPF)
Bit depth : 16 bits
Compression mode : Lossy
Delay relative to video : -5 ms
Stream size : 130 MiB (7%)
Title : Stereo
Language : English
Service kind : Complete Main
Default : Yes
Forced : No

Menu
00:00:00.000 : :Chapter 1
00:08:39.477 : :Chapter 2
00:20:42.533 : :Chapter 3
00:31:01.443 : :Chapter 4
00:41:45.545 : :Chapter 5
00:53:59.862 : :Chapter 6
00:59:52.589 : :Chapter 7
01:09:46.057 : :Chapter 8
01:19:24.510 : :Chapter 9
01:29:21.439 : :Chapter 10





Thunder at the Border (1966)


Thunder at the Border (1966)


Thunder at the Border (1966)


Thunder at the Border (1966)


Thunder at the Border (1966)