Tags
Language
Tags

Thunderbirds Are Go! S02E21

Posted By: Tavaz
1080p (FullHD) / WEB-DL IMDb
Thunderbirds Are Go! S02E21

Thunderbirds Are Go! S02E21
WEB-DL | MKV | 1920x1080 | English | H264 @ 5121 kbps | AAC @ 126 kbps | 22 min 7 s | 831 MiB
Subtitles: English
Genre: Animation, Family

Remake of the hit 1960s television show. In the 21st century, Jeff Tracy, a former astronaut, amasses a colossal fortune and decides that he must use it to benefit others. His answer to this desire is to create International Rescue, a unique private emergency response service equipped with customized designed vehicles and equipment that enable the organization to react to any crisis whether it be in sea, air, land, or space. Jeff's five sons volunteer to operate as the pilots and field agents, as well "Brain" who acts as the teams engineer. In addition, Jeff's friend, Kyrano and his daughter Tanusha aka Kayo (based on the original series Tin-Tin character) agree to be the support staff. In addition to the field team, IR also maintains an intelligence network with Lady Penelope and her ex-con chauffeur, Parker as the chief agents in this arm.

S02E21 Inferno.mkv (830.9 MB)



General
Unique ID : 214261393634508350262181105877419541027 (0xA1313E4EFBA20077A0D03EC9FD6BC223)
Complete name : ./S02E21 Inferno.mkv
Format : Matroska
Format version : Version 4 / Version 2
File size : 831 MiB
Duration : 22 min 7 s
Overall bit rate : 5 250 kb/s
Encoded date : UTC 2017-12-18 23:21:36
Writing application : mkvmerge v18.0.0 ('Apricity') 32-bit
Writing library : libebml v1.3.5 + libmatroska v1.4.8

Video
ID : 2
Format : AVC
Format/Info : Advanced Video Codec
Format profile : High@L4
Format settings : CABAC / 4 Ref Frames
Format settings, CABAC : Yes
Format settings, RefFrames : 4 frames
Codec ID : V_MPEG4/ISO/AVC
Duration : 22 min 7 s
Bit rate : 5 121 kb/s
Width : 1 920 pixels
Height : 1 080 pixels
Display aspect ratio : 16:9
Frame rate mode : Constant
Frame rate : 25.000 FPS
Color space : YUV
Chroma subsampling : 4:2:0
Bit depth : 8 bits
Scan type : Progressive
Bits/(Pixel*Frame) : 0.099
Stream size : 810 MiB (98%)
Language : English
Default : Yes
Forced : No
Color range : Limited
Color primaries : BT.709
Transfer characteristics : BT.709
Matrix coefficients : BT.709

Audio
ID : 1
Format : AAC
Format/Info : Advanced Audio Codec
Format profile : LC
Codec ID : A_AAC-2
Duration : 22 min 7 s
Bit rate : 127 kb/s
Channel(s) : 2 channels
Channel positions : Front: L R
Sampling rate : 48.0 kHz
Frame rate : 46.875 FPS (1024 SPF)
Compression mode : Lossy
Delay relative to video : -40 ms
Stream size : 20.0 MiB (2%)
Language : English
Default : Yes
Forced : No

Text
ID : 3
Format : UTF-8
Codec ID : S_TEXT/UTF8
Codec ID/Info : UTF-8 Plain Text
Duration : 21 min 37 s
Bit rate : 53 b/s
Count of elements : 222
Stream size : 8.44 KiB (0%)
Title : EN
Language : English
Default : Yes
Forced : No





Thunderbirds Are Go! S02E21


Thunderbirds Are Go! S02E21


Thunderbirds Are Go! S02E21


Thunderbirds Are Go! S02E21


Thunderbirds Are Go! S02E21

All episodes