Tags
Language
Tags

Thunderbirds Are Go! S02E26

Posted By: Tavaz
1080p (FullHD) / WEB-DL IMDb
Thunderbirds Are Go! S02E26

Thunderbirds Are Go! S02E26
WEB-DL | MKV | 1920x1080 | English | H264 @ 5132 kbps | AAC @ 157 kbps | 22 min 8 s | 838 MiB
Subtitles: English
Genre: Animation, Family

Remake of the hit 1960s television show. In the 21st century, Jeff Tracy, a former astronaut, amasses a colossal fortune and decides that he must use it to benefit others. His answer to this desire is to create International Rescue, a unique private emergency response service equipped with customized designed vehicles and equipment that enable the organization to react to any crisis whether it be in sea, air, land, or space. Jeff's five sons volunteer to operate as the pilots and field agents, as well "Brain" who acts as the teams engineer. In addition, Jeff's friend, Kyrano and his daughter Tanusha aka Kayo (based on the original series Tin-Tin character) agree to be the support staff. In addition to the field team, IR also maintains an intelligence network with Lady Penelope and her ex-con chauffeur, Parker as the chief agents in this arm.

S02E26 Brains vs. Brawn.mkv (838.0 MB)



General
Unique ID : 235728763836345452376888119326677663460 (0xB157B5606CD43AB3BFD2597DBF27FEE4)
Complete name : ./S02E26 Brains vs. Brawn.mkv
Format : Matroska
Format version : Version 4 / Version 2
File size : 838 MiB
Duration : 22 min 8 s
Overall bit rate : 5 292 kb/s
Encoded date : UTC 2017-12-19 21:59:04
Writing application : mkvmerge v18.0.0 ('Apricity') 32-bit
Writing library : libebml v1.3.5 + libmatroska v1.4.8

Video
ID : 1
Format : AVC
Format/Info : Advanced Video Codec
Format profile : High@L4
Format settings : CABAC / 4 Ref Frames
Format settings, CABAC : Yes
Format settings, RefFrames : 4 frames
Codec ID : V_MPEG4/ISO/AVC
Duration : 22 min 8 s
Bit rate : 5 132 kb/s
Width : 1 920 pixels
Height : 1 080 pixels
Display aspect ratio : 16:9
Frame rate mode : Constant
Frame rate : 25.000 FPS
Color space : YUV
Chroma subsampling : 4:2:0
Bit depth : 8 bits
Scan type : Progressive
Bits/(Pixel*Frame) : 0.099
Stream size : 813 MiB (97%)
Title : H.264
Language : English
Default : Yes
Forced : No
Color range : Limited
Color primaries : BT.709
Transfer characteristics : BT.709
Matrix coefficients : BT.709

Audio
ID : 2
Format : AAC
Format/Info : Advanced Audio Codec
Format profile : LC
Codec ID : A_AAC-2
Duration : 22 min 8 s
Bit rate : 157 kb/s
Channel(s) : 2 channels
Channel positions : Front: L R
Sampling rate : 48.0 kHz
Frame rate : 46.875 FPS (1024 SPF)
Compression mode : Lossy
Stream size : 24.9 MiB (3%)
Title : AAC2.0
Language : English
Default : Yes
Forced : No

Text #1
ID : 3
Format : UTF-8
Codec ID : S_TEXT/UTF8
Codec ID/Info : UTF-8 Plain Text
Duration : 21 min 18 s
Bit rate : 63 b/s
Count of elements : 326
Stream size : 9.99 KiB (0%)
Title : EN-SDH
Language : English
Default : No
Forced : No

Text #2
ID : 4
Format : UTF-8
Codec ID : S_TEXT/UTF8
Codec ID/Info : UTF-8 Plain Text
Duration : 21 min 11 s
Bit rate : 56 b/s
Count of elements : 281
Stream size : 8.82 KiB (0%)
Title : EN
Language : English
Default : Yes
Forced : No





Thunderbirds Are Go! S02E26


Thunderbirds Are Go! S02E26


Thunderbirds Are Go! S02E26


Thunderbirds Are Go! S02E26


Thunderbirds Are Go! S02E26

All episodes