Tags
Language
Tags

Tinker Bell and the Lost Treasure (2009)

Posted By: Tavaz
1080p (FullHD) / BDRip IMDb
Tinker Bell and the Lost Treasure (2009)

Tinker Bell and the Lost Treasure (2009)
BDRip | MKV | 1920x1072 | English | H264 @ 5649 kbps | DTS @ 1509 kbps | 1 h 20 min | 4.09 GiB
Genre: Adventure, Animation, Fantasy, Family

A blue harvest moon will rise, allowing the fairies to use a precious moonstone to restore the Pixie Dust Tree, the source of all their magic. But when Tinker Bell accidentally puts all of Pixie Hollow in jeopardy, she must venture out across the sea on a secret quest to set things right.

ce5a59b192e402aa0f1c570549c1d7cf.mkv (4.1 GB)



General
Unique ID : 252749985132971984320245868905124632847 (0xBE25E06110C4676AA07694A3EE44990F)
Complete name : ./ce5a59b192e402aa0f1c570549c1d7cf.mkv
Format : Matroska
Format version : Version 2
File size : 4.09 GiB
Duration : 1 h 20 min
Overall bit rate : 7 304 kb/s
Encoded date : UTC 2009-11-20 03:49:30
Writing application : mkvmerge v2.9.7 ('Tenderness') built on Jul 1 2009 18:43:35
Writing library : libebml v0.7.7 + libmatroska v0.8.1

Video
ID : 1
Format : AVC
Format/Info : Advanced Video Codec
Format profile : High@L4.1
Format settings : CABAC / 12 Ref Frames
Format settings, CABAC : Yes
Format settings, RefFrames : 12 frames
Codec ID : V_MPEG4/ISO/AVC
Duration : 1 h 20 min
Bit rate : 5 649 kb/s
Width : 1 920 pixels
Height : 1 072 pixels
Display aspect ratio : 16:9
Frame rate mode : Constant
Frame rate : 23.976 (24000/1001) FPS
Color space : YUV
Chroma subsampling : 4:2:0
Bit depth : 8 bits
Scan type : Progressive
Bits/(Pixel*Frame) : 0.114
Stream size : 3.16 GiB (77%)
Writing library : x264 core 78 r1310 ec46ace
Encoding settings : cabac=1 / ref=12 / deblock=1:-3:-3 / analyse=0x3:0x113 / me=umh / subme=10 / psy=1 / psy_rd=1.0:0.0 / mixed_ref=1 / me_range=32 / chroma_me=1 / trellis=2 / 8x8dct=1 / cqm=0 / deadzone=21,11 / chroma_qp_offset=-2 / threads=12 / nr=0 / decimate=1 / mbaff=0 / constrained_intra=0 / bframes=4 / b_pyramid=0 / b_adapt=2 / b_bias=0 / direct=3 / wpredb=0 / keyint=250 / keyint_min=25 / scenecut=40 / rc_lookahead=40 / rc=crf / mbtree=1 / crf=19.0 / qcomp=0.60 / qpmin=10 / qpmax=51 / qpstep=4 / vbv_maxrate=50000 / vbv_bufsize=50000 / ip_ratio=1.40 / aq=1:1.00
Language : English
Default : Yes
Forced : No

Audio
ID : 2
Format : DTS
Format/Info : Digital Theater Systems
Mode : 16
Format settings, Endianness : Big
Codec ID : A_DTS
Duration : 1 h 20 min
Bit rate mode : Constant
Bit rate : 1 509 kb/s
Channel(s) : 6 channels
Channel positions : Front: L C R, Side: L R, LFE
Sampling rate : 48.0 kHz
Frame rate : 93.750 FPS (512 SPF)
Bit depth : 24 bits
Compression mode : Lossy
Stream size : 866 MiB (21%)
Language : English
Default : Yes
Forced : No





Tinker Bell and the Lost Treasure (2009)


Tinker Bell and the Lost Treasure (2009)


Tinker Bell and the Lost Treasure (2009)


Tinker Bell and the Lost Treasure (2009)


Tinker Bell and the Lost Treasure (2009)