Tags
Language
Tags

Tom and Jerry Meet Sherlock Holmes (2010)

Posted By: Tavaz
1080p (FullHD) / BDRip IMDb
Tom and Jerry Meet Sherlock Holmes (2010)

Tom and Jerry Meet Sherlock Holmes (2010)
BDRip | MKV | 1920x1080 | English | H264 @ 5760 kbps | AC-3 @ 448 kbps | 49 min 51 s | 2.16 GiB
Subtitles: English
Genre: Adventure, Animation, Comedy, Family

Tom and Jerry need to learn to work together in order to help Sherlock Holmes with an investigation of a jewel theft. But still, they are cat and mouse!

0d727103b90e3b8b523eb451d3b0a987.mkv (2.2 GB)



General
Unique ID : 278600304511100133172962766882704050478 (0xD19877869567D8FA943D1F441965C92E)
Complete name : ./0d727103b90e3b8b523eb451d3b0a987.mkv
Format : Matroska
Format version : Version 4 / Version 2
File size : 2.16 GiB
Duration : 49 min 51 s
Overall bit rate : 6 206 kb/s
Movie name : Tom.and.Jerry.Meet.Sherlock.Holmes.2010.1080p.BluRay.x264-nikt0
Encoded date : UTC 2020-06-13 22:08:47 / UTC 2020-06-13T05:50:26Z
Writing application : mkvmerge v47.0.0 ('Black Flag') 64-bit
Writing library : libebml v1.3.10 + libmatroska v1.5.2 / Lavf57.7.2

Video
ID : 1
Format : AVC
Format/Info : Advanced Video Codec
Format profile : High@L4
Format settings : CABAC / 4 Ref Frames
Format settings, CABAC : Yes
Format settings, RefFrames : 4 frames
Codec ID : V_MPEG4/ISO/AVC
Duration : 49 min 51 s
Bit rate : 5 760 kb/s
Width : 1 920 pixels
Height : 1 080 pixels
Display aspect ratio : 16:9
Frame rate mode : Constant
Frame rate : 23.976 (24000/1001) FPS
Color space : YUV
Chroma subsampling : 4:2:0
Bit depth : 8 bits
Scan type : Progressive
Bits/(Pixel*Frame) : 0.116
Stream size : 1.96 GiB (91%)
Writing library : x264 core 155 r2901 7d0ff22
Encoding settings : cabac=1 / ref=4 / deblock=1:-3:-3 / analyse=0x3:0x133 / me=umh / subme=9 / psy=1 / psy_rd=1.10:0.25 / mixed_ref=1 / me_range=32 / chroma_me=1 / trellis=2 / 8x8dct=1 / cqm=0 / deadzone=6,6 / fast_pskip=1 / chroma_qp_offset=-4 / threads=34 / lookahead_threads=3 / sliced_threads=0 / nr=0 / decimate=1 / interlaced=0 / bluray_compat=0 / constrained_intra=0 / bframes=6 / b_pyramid=2 / b_adapt=2 / b_bias=0 / direct=3 / weightb=1 / open_gop=0 / weightp=2 / keyint=240 / keyint_min=24 / scenecut=40 / intra_refresh=0 / rc_lookahead=40 / rc=2pass / mbtree=1 / bitrate=5760 / ratetol=1.0 / qcomp=0.60 / qpmin=0 / qpmax=69 / qpstep=4 / cplxblur=20.0 / qblur=0.5 / vbv_maxrate=20000 / vbv_bufsize=25000 / nal_hrd=none / filler=0 / ip_ratio=1.40 / aq=1:1.00
Default : Yes
Forced : No
Color range : Limited
Color primaries : BT.709
Transfer characteristics : BT.709
Matrix coefficients : BT.709
Statistics Tags Issue : mkvmerge v47.0.0 ('Black Flag') 64-bit 2020-06-13 22:08:47 / mkvmerge v47.0.0 ('Black Flag') 64-bit 2020-06-13 22:08:47 / UTC 2020-06-13T05:50:26Z
FromStats_BitRate : 5756188
FromStats_Duration : 00:49:51.155000000
FromStats_FrameCount : 71716
FromStats_StreamSize : 2152206557

Audio
ID : 2
Format : AC-3
Format/Info : Audio Coding 3
Format settings, Endianness : Big
Codec ID : A_AC3
Duration : 49 min 51 s
Bit rate mode : Constant
Bit rate : 448 kb/s
Channel(s) : 6 channels
Channel positions : Front: L C R, Side: L R, LFE
Sampling rate : 48.0 kHz
Frame rate : 31.250 FPS (1536 SPF)
Bit depth : 16 bits
Compression mode : Lossy
Stream size : 160 MiB (7%)
Title : Surround
Language : English
Service kind : Complete Main
Default : Yes
Forced : No
Statistics Tags Issue : mkvmerge v47.0.0 ('Black Flag') 64-bit 2020-06-13 22:08:47 / mkvmerge v47.0.0 ('Black Flag') 64-bit 2020-06-13 22:08:47 / UTC 2020-06-13T05:50:26Z
FromStats_BitRate : 448000
FromStats_Duration : 00:49:51.200000000
FromStats_FrameCount : 93475
FromStats_StreamSize : 167507200

Text
ID : 3
Format : UTF-8
Codec ID : S_TEXT/UTF8
Codec ID/Info : UTF-8 Plain Text
Language : English
Default : Yes
Forced : No
Statistics Tags Issue : mkvmerge v47.0.0 ('Black Flag') 64-bit 2020-06-13 22:08:47 / mkvmerge v47.0.0 ('Black Flag') 64-bit 2020-06-13 22:08:47 / UTC 2020-06-13T05:50:26Z
FromStats_BitRate : 42
FromStats_Duration : 00:49:20.708000000
FromStats_FrameCount : 483
FromStats_StreamSize : 15864

Menu
00:00:00.000 : :Chapter 1
00:08:09.406 : :Chapter 2
00:11:50.084 : :Chapter 3
00:32:19.980 : :Chapter 4
00:47:46.655 : :Chapter 5





Tom and Jerry Meet Sherlock Holmes (2010)


Tom and Jerry Meet Sherlock Holmes (2010)


Tom and Jerry Meet Sherlock Holmes (2010)


Tom and Jerry Meet Sherlock Holmes (2010)


Tom and Jerry Meet Sherlock Holmes (2010)