Transformers: The Last Knight (2017)

Posted By: Without
Transformers: The Last Knight (2017)

Transformers: The Last Knight (2017)
4K UHD Remux | MKV | 3840x2160 | HEVC@62.1 Mb/s | English Atmos / TrueHD@4298 kb/s Kbps (8 ch)
English AC3@640 Kbps (6 ch) | Subs: English, French, Spanish, Portuguese | 2 h 19 min | 72.7 GB
Genre: Action, Adventure, Sci-Fi

Autobots and Decepticons are at war, with humans on the sidelines. Optimus Prime is gone. The key to saving our future lies buried in the secrets of the past, in the hidden history of Transformers on Earth.

IMDB - 4 nominations.


General
Transformers.The.Last.Knight.2017.UHD.BluRay.2160p.TrueHD.Atmos.7.1.HEVC.REMUX-FraMeSToR\Transformers.The.Last.Knight.2017.UHD.BluRay.2160p.TrueHD.Atmos.7.1.HEVC.REMUX-FraMeSToR.mkv
Format : Matroska
Format version : Version 4 / Version 2
File size : 72.7 GiB
Duration : 2 h 34 min
Overall bit rate mode : Variable
Overall bit rate : 67.3 Mb/s
Movie name : Transformers: The Last Knight
Encoded date : UTC 2017-10-20 15:51:35
Writing application : mkvmerge v17.0.0 ('Be Ur Friend') 64-bit
Writing library : libebml v1.3.5 + libmatroska v1.4.8

Video
ID : 1
Format : HEVC
Format/Info : High Efficiency Video Coding
Format profile : Main 10@L5.1@High
Codec ID : V_MPEGH/ISO/HEVC
Duration : 2 h 34 min
Bit rate : 62.1 Mb/s
Width : 3 840 pixels
Height : 2 160 pixels
Display aspect ratio : 16:9
Frame rate mode : Constant
Frame rate : 23.976 (24000/1001) FPS
Color space : YUV
Chroma subsampling : 4:2:0 (Type 2)
Bit depth : 10 bits
Bits/(Pixel*Frame) : 0.312
Stream size : 67.1 GiB (92%)
Default : Yes
Forced : No
Color range : Limited
Color primaries : BT.2020
Transfer characteristics : SMPTE ST 2084
Matrix coefficients : BT.2020 non-constant
Mastering display color primaries : R: x=0.680000 y=0.320000, G: x=0.265000 y=0.690000, B: x=0.150000 y=0.060000, White point: x=0.312700 y=0.329000
Mastering display luminance : min: 0.0001 cd/m2, max: 1000.0000 cd/m2

Audio #1
ID : 2
Format : Atmos / TrueHD
Codec ID : A_TRUEHD
Duration : 2 h 34 min
Bit rate mode : Variable
Bit rate : 4 298 kb/s
Maximum bit rate : 6 528 kb/s
Channel(s) : Object Based / 8 channels
Channel positions : Object Based / Front: L C R, Side: L R, Back: L R, LFE
Sampling rate : / 48.0 kHz
Frame rate : 1 200.000 FPS (40 spf)
Compression mode : Lossless
Stream size : 4.64 GiB (6%)
Title : TrueHD Atmos 7.1
Language : English
Default : Yes
Forced : No

Audio #2
ID : 3
Format : AC-3
Format/Info : Audio Coding 3
Mode extension : CM (complete main)
Format settings, Endianness : Big
Codec ID : A_AC3
Duration : 2 h 34 min
Bit rate mode : Constant
Bit rate : 640 kb/s
Channel(s) : 6 channels
Channel positions : Front: L C R, Side: L R, LFE
Sampling rate : 48.0 kHz
Frame rate : 31.250 FPS (1536 spf)
Bit depth : 16 bits
Compression mode : Lossy
Stream size : 708 MiB (1%)
Title : AC3 5.1-EX
Language : English
Default : No
Forced : No

Text #1
ID : 4
Format : PGS
Codec ID : S_HDMV/PGS
Codec ID/Info : Picture based subtitle format used on BDs/HD-DVDs
Duration : 2 h 24 min
Bit rate : 39.9 kb/s
Count of elements : 4552
Stream size : 41.3 MiB (0%)
Title : English
Language : English
Default : No
Forced : No

Text #2
ID : 5
Format : PGS
Codec ID : S_HDMV/PGS
Codec ID/Info : Picture based subtitle format used on BDs/HD-DVDs
Duration : 2 h 25 min
Bit rate : 46.8 kb/s
Count of elements : 5240
Stream size : 48.8 MiB (0%)
Title : English (SDH)
Language : English
Default : No
Forced : No

Text #3
ID : 6
Format : PGS
Codec ID : S_HDMV/PGS
Codec ID/Info : Picture based subtitle format used on BDs/HD-DVDs
Duration : 2 h 25 min
Bit rate : 38.5 kb/s
Count of elements : 4614
Stream size : 40.2 MiB (0%)
Title : French
Language : French
Default : No
Forced : No

Text #4
ID : 7
Format : PGS
Codec ID : S_HDMV/PGS
Codec ID/Info : Picture based subtitle format used on BDs/HD-DVDs
Duration : 2 h 25 min
Bit rate : 37.1 kb/s
Count of elements : 4576
Stream size : 38.7 MiB (0%)
Title : Spanish (Latin American)
Language : Spanish
Default : No
Forced : No

Text #5
ID : 8
Format : PGS
Codec ID : S_HDMV/PGS
Codec ID/Info : Picture based subtitle format used on BDs/HD-DVDs
Duration : 2 h 25 min
Bit rate : 34.2 kb/s
Count of elements : 4614
Stream size : 35.6 MiB (0%)
Title : Portuguese (Brazilian)
Language : Portuguese
Default : No
Forced : No

Menu
00:00:00.000 : en:Chapter 01
00:06:36.104 : en:Chapter 02
00:14:03.468 : en:Chapter 03
00:21:45.763 : en:Chapter 04
00:27:53.255 : en:Chapter 05
00:33:53.907 : en:Chapter 06
00:40:08.906 : en:Chapter 07
00:46:58.941 : en:Chapter 08
00:53:25.786 : en:Chapter 09
01:02:02.928 : en:Chapter 10
01:08:47.081 : en:Chapter 11
01:14:37.223 : en:Chapter 12
01:20:10.180 : en:Chapter 13
01:29:13.390 : en:Chapter 14
01:37:59.499 : en:Chapter 15
01:44:57.583 : en:Chapter 16
01:51:15.502 : en:Chapter 17
01:57:59.447 : en:Chapter 18
02:06:09.729 : en:Chapter 19
02:10:54.096 : en:Chapter 20
02:16:01.153 : en:Chapter 21
02:21:42.619 : en:Chapter 22
02:25:17.292 : en:Chapter 23


Screenshots

Transformers: The Last Knight (2017)

Transformers: The Last Knight (2017)

Transformers: The Last Knight (2017)


Come Visit My Blog (•‿•)