Tremors: A Cold Day in Hell (2018)

Posted By: JohnSmith
720p (HD) / BDRip IMDb
Tremors: A Cold Day in Hell (2018)

Tremors: A Cold Day in Hell (2018)
BDRip | MKV / AVC@1940 kb/s | 848x476 | 1h 37mn | 1.75 GB
Italian (dubbed): AC3, 640 kb/s (6 ch) | Subtitles: Italian (forced, full)
BDRip 720p | MKV / AVC@4665 kb/s | 1280x720 | 1h 37mn | 3.72 GB
Italian (dubbed): DTS, 768 kb/s (6 ch) | Subtitles: Italian (forced, full)
Genre: Action | Horror | Sci-Fi

Burt Gummer e il figlio Travis Welker si dirigono in Canada per indagare su una serie di micidiali attacchi messi a segno da vermi giganti. Giunti in un remoto centro di ricerca nella tundra artica, Burt inizia a sospettare che i Graboid siano nascosti da qualche parte ma prima che possa dimostrare la sua teoria viene raggiunto dal veleno di uno di essi. Con solo 48 ore di vita, dovrà cercare un antidoto contro il veleno.




General
Unique ID : 217546632679797782569332099373707560872 (0xA3A9F519564BA36598243DE79EFC07A8)
Complete name : A:\Tremors.A.Cold.Day.in.Hell.2018.ITA.BDRip.480p.CB01HD.mkv
Format : Matroska
Format version : Version 4 / Version 2
File size : 1.75 GiB
Duration : 1 h 37 min
Overall bit rate : 2 550 kb/s
Encoded date : UTC 2018-05-04 18:19:12
Writing application : mkvmerge v8.3.0 ('Over the Horizon') 64bit
Writing library : libebml v1.3.1 + libmatroska v1.4.2

Video
ID : 1
Format : AVC
Format/Info : Advanced Video Codec
Format profile : Main@L3
Format settings, CABAC : Yes
Format settings, ReFrames : 1 frame
Codec ID : V_MPEG4/ISO/AVC
Duration : 1 h 37 min
Bit rate : 1 943 kb/s
Width : 848 pixels
Height : 476 pixels
Display aspect ratio : 16:9
Frame rate mode : Constant
Frame rate : 23.976 (24000/1001) FPS
Color space : YUV
Chroma subsampling : 4:2:0
Bit depth : 8 bits
Scan type : Progressive
Bits/(Pixel*Frame) : 0.201
Stream size : 1.31 GiB (75%)
Writing library : x264 core 129
Encoding settings : cabac=1 / ref=1 / deblock=1:0:0 / analyse=0x1:0x131 / me=dia / subme=2 / psy=1 / psy_rd=1.00:0.00 / mixed_ref=0 / me_range=16 / chroma_me=1 / trellis=0 / 8x8dct=0 / cqm=0 / deadzone=21,11 / fast_pskip=1 / chroma_qp_offset=0 / threads=8 / lookahead_threads=1 / sliced_threads=0 / nr=0 / decimate=1 / interlaced=0 / bluray_compat=0 / constrained_intra=0 / bframes=0 / weightp=2 / keyint=250 / keyint_min=25 / scenecut=40 / intra_refresh=0 / rc_lookahead=40 / rc=abr / mbtree=1 / bitrate=1943 / ratetol=1.0 / qcomp=0.60 / qpmin=10 / qpmax=51 / qpstep=4 / ip_ratio=1.41 / aq=1:1.00
Default : Yes
Forced : No

Audio
ID : 2
Format : AC-3
Format/Info : Audio Coding 3
Format settings, Endianness : Big
Codec ID : A_AC3
Duration : 1 h 37 min
Bit rate mode : Constant
Bit rate : 640 kb/s
Channel(s) : 6 channels
Channel positions : Front: L C R, Side: L R, LFE
Sampling rate : 48.0 kHz
Frame rate : 31.250 FPS (1536 spf)
Bit depth : 16 bits
Compression mode : Lossy
Stream size : 448 MiB (25%)
Language : Italian
Service kind : Complete Main
Default : Yes
Forced : No

Text #1
ID : 3
Format : UTF-8
Codec ID : S_TEXT/UTF8
Codec ID/Info : UTF-8 Plain Text
Duration : 39 min 28 s
Bit rate : 1 b/s
Count of elements : 8
Stream size : 305 Bytes (0%)
Title : Forced
Language : Italian
Default : Yes
Forced : No

Text #2
ID : 4
Format : UTF-8
Codec ID : S_TEXT/UTF8
Codec ID/Info : UTF-8 Plain Text
Duration : 1 h 37 min
Bit rate : 56 b/s
Count of elements : 1230
Stream size : 40.2 KiB (0%)
Language : Italian
Default : No
Forced : No





General
Unique ID : 216236460292349251693493785768782706097 (0xA2ADA09CED9BE658BBCF85EFE503B5B1)
Complete name : A:\Tremors.A.Cold.Day.in.Hell.2018.iTA.Bluray.720p.x264-CYBER.mkv
Format : Matroska
Format version : Version 4 / Version 2
File size : 3.72 GiB
Duration : 1 h 37 min
Overall bit rate : 5 436 kb/s
Encoded date : UTC 2018-05-04 18:18:49
Writing application : mkvmerge v8.3.0 ('Over the Horizon') 64bit
Writing library : libebml v1.3.1 + libmatroska v1.4.2

Video
ID : 1
Format : AVC
Format/Info : Advanced Video Codec
Format profile : High@L4.1
Format settings, CABAC : Yes
Format settings, ReFrames : 5 frames
Codec ID : V_MPEG4/ISO/AVC
Duration : 1 h 37 min
Bit rate : 4 665 kb/s
Width : 1 280 pixels
Height : 720 pixels
Display aspect ratio : 16:9
Frame rate mode : Constant
Frame rate : 23.976 (24000/1001) FPS
Color space : YUV
Chroma subsampling : 4:2:0
Bit depth : 8 bits
Scan type : Progressive
Bits/(Pixel*Frame) : 0.211
Stream size : 3.19 GiB (86%)
Writing library : x264 core 155 r2901 7d0ff22
Language : English
Default : Yes
Forced : No

Audio
ID : 2
Format : DTS
Format/Info : Digital Theater Systems
Mode : 16
Format settings, Endianness : Big
Codec ID : A_DTS
Duration : 1 h 37 min
Bit rate mode : Constant
Bit rate : 768 kb/s
Channel(s) : 6 channels
Channel positions : Front: L C R, Side: L R, LFE
Sampling rate : 48.0 kHz
Frame rate : 93.750 FPS (512 spf)
Bit depth : 24 bits
Compression mode : Lossy
Stream size : 538 MiB (14%)
Language : Italian
Default : Yes
Forced : No

Text #1
ID : 3
Format : UTF-8
Codec ID : S_TEXT/UTF8
Codec ID/Info : UTF-8 Plain Text
Duration : 1 h 37 min
Bit rate : 0 b/s
Count of elements : 10
Stream size : 341 Bytes (0%)
Title : FORCED
Language : Italian
Default : Yes
Forced : No

Text #2
ID : 4
Format : UTF-8
Codec ID : S_TEXT/UTF8
Codec ID/Info : UTF-8 Plain Text
Duration : 1 h 37 min
Bit rate : 56 b/s
Count of elements : 1231
Stream size : 40.1 KiB (0%)
Title : REGOLARI
Language : Italian
Default : No
Forced : No




Screenshots BDRip

Tremors: A Cold Day in Hell (2018)

Tremors: A Cold Day in Hell (2018)

Tremors: A Cold Day in Hell (2018)


Screenshots BDRip 720p

Tremors: A Cold Day in Hell (2018)

Tremors: A Cold Day in Hell (2018)

Tremors: A Cold Day in Hell (2018)