Trolls (2016)

Posted By: JohnSmith
Trolls (2016)

Trolls (2016)
BDRip | MKV / AVC@1870 kb/s | 848x360 | 1h 32mn | 1.46 GB
Italian: AC3, 384 kb/s (6 ch) | Subtitles: Italian (forced, full)
Genre: Animation | Adventure | Comedy | Family | Fantasy | Musical

Partendo per un'epica avventura che la porterà oltre il mondo da lei conosciuto, Poppy unirà le forze con Branch, in una rischiosa missione per salvare i suoi amici dalle grinfie del sinistro popolo dei Bergen e del loro capo, il re Gristle.

IMDB - Nominated for 1 Oscar. Another 2 wins & 22 nominations.



General
Unique ID : 179347588696327518399354199223007504006 (0x86ED16D2B0E8A8A6A0CA3C9BD6B0E686)
Complete name : A:\Trolls.2016.BDRip.480p.iTA-DDN.mkv
Format : Matroska
Format version : Version 4 / Version 2
File size : 1.46 GiB
Duration : 1 h 32 min
Overall bit rate : 2 256 kb/s
Encoded date : UTC 2017-02-09 13:39:51
Writing application : mkvmerge v8.3.0 ('Over the Horizon') 64bit
Writing library : libebml v1.3.1 + libmatroska v1.4.2

Video
ID : 1
Format : AVC
Format/Info : Advanced Video Codec
Format profile : High@L4.1
Format settings, CABAC : Yes
Format settings, ReFrames : 5 frames
Codec ID : V_MPEG4/ISO/AVC
Duration : 1 h 32 min
Bit rate : 1 870 kb/s
Width : 848 pixels
Height : 360 pixels
Display aspect ratio : 2.35:1
Frame rate mode : Constant
Frame rate : 23.976 (24000/1001) FPS
Color space : YUV
Chroma subsampling : 4:2:0
Bit depth : 8 bits
Scan type : Progressive
Bits/(Pixel*Frame) : 0.255
Stream size : 1.21 GiB (83%)
Writing library : x264 core 148 r2705+54 9f484c1 t_mod_Custom [8-bit@all X86_64]
Encoding settings : cabac=1 / ref=5 / deblock=1:0:0 / analyse=0x3:0x133 / me=umh / subme=7 / psy=1 / fade_compensate=0.00 / psy_rd=0.80:0.00 / mixed_ref=1 / me_range=32 / chroma_me=1 / trellis=2 / 8x8dct=1 / cqm=0 / deadzone=21,11 / fast_pskip=0 / chroma_qp_offset=-2 / threads=11 / lookahead_threads=1 / sliced_threads=0 / nr=0 / decimate=0 / interlaced=0 / bluray_compat=0 / constrained_intra=0 / fgo=0 / bframes=3 / b_pyramid=2 / b_adapt=2 / b_bias=0 / direct=3 / weightb=1 / open_gop=0 / weightp=2 / keyint=240 / keyint_min=23 / scenecut=40 / intra_refresh=0 / rc_lookahead=40 / rc=2pass / mbtree=1 / bitrate=1870 / ratetol=1.0 / qcomp=0.60 / qpmin=0:0:0 / qpmax=69:69:69 / qpstep=4 / cplxblur=20.0 / qblur=0.5 / vbv_maxrate=50000 / vbv_bufsize=50000 / nal_hrd=none / filler=0 / ip_ratio=1.40 / aq=1:1.00 / aq-sensitivity=10.00 / aq-factor=1.00:1.00:1.00 / aq2=0 / aq3=0
Language : English
Default : Yes
Forced : No

Audio
ID : 2
Format : AC-3
Format/Info : Audio Coding 3
Mode extension : CM (complete main)
Format settings, Endianness : Big
Codec ID : A_AC3
Duration : 1 h 32 min
Bit rate mode : Constant
Bit rate : 384 kb/s
Channel(s) : 6 channels
Channel positions : Front: L C R, Side: L R, LFE
Sampling rate : 48.0 kHz
Frame rate : 31.250 FPS (1536 spf)
Compression mode : Lossy
Stream size : 254 MiB (17%)
Title : iTunes Resync
Language : Italian
Default : Yes
Forced : No

Text #1
ID : 3
Format : UTF-8
Codec ID : S_TEXT/UTF8
Codec ID/Info : UTF-8 Plain Text
Duration : 36 s 36 ms
Bit rate : 59 b/s
Count of elements : 8
Stream size : 268 Bytes (0%)
Title : FORCED iTA
Language : Italian
Default : Yes
Forced : Yes

Text #2
ID : 4
Format : UTF-8
Codec ID : S_TEXT/UTF8
Codec ID/Info : UTF-8 Plain Text
Duration : 1 h 31 min
Bit rate : 59 b/s
Count of elements : 1364
Stream size : 39.5 KiB (0%)
Title : REGULAR iTA
Language : Italian
Default : No
Forced : No




Screenshots

Trolls (2016)

Trolls (2016)

Trolls (2016)