Tags
Language
Tags

True Grit (2010)

Posted By: Tavaz
True Grit (2010)

True Grit (2010)
MKV | 1280x544 | English | H264 @ 2999 kbps | AC-3 @ 448 kbps | 1 h 50 min | 2.66 GiB
Genre: Adventure, Drama, Western

Following the murder of her father by hired hand Tom Chaney, 14-year-old farm girl Mattie Ross sets out to capture the killer. To aid her, she hires the toughest U.S. Marshal she can find, a man with "true grit," Reuben J. "Rooster" Cogburn. Mattie insists on accompanying Cogburn, whose drinking, sloth, and generally reprobate character do not augment her faith in him. Against his wishes, she joins him in his trek into the Indian Nations in search of Chaney. They are joined by Texas Ranger LaBoeuf, who wants Chaney for his own purposes. The unlikely trio find danger and adventure on the journey, and each has his or her "grit" tested.

True Grit 2010 720p BRRip AC3 x264 MacGuffin.srt (109.3 KB)
True Grit 2010 720p BRRip AC3 x264 MacGuffin.mkv (2.7 GB)



General
Unique ID : 216163706267679820979277761864802402191 (0xA29F9D900938245A8990B4767E9E7F8F)
Complete name : ./True Grit 2010 720p BRRip AC3 x264 MacGuffin.mkv
Format : Matroska
Format version : Version 2
File size : 2.66 GiB
Duration : 1 h 50 min
Overall bit rate : 3 448 kb/s
Encoded date : UTC 2011-05-25 03:17:13
Writing application : mkvmerge v4.7.0 ('Just Like You Imagined') built on Apr 21 2011 01:13:14
Writing library : libebml v1.2.0 + libmatroska v1.1.0

Video
ID : 1
Format : AVC
Format/Info : Advanced Video Codec
Format profile : High@L4.1
Format settings : CABAC / 5 Ref Frames
Format settings, CABAC : Yes
Format settings, RefFrames : 5 frames
Codec ID : V_MPEG4/ISO/AVC
Duration : 1 h 50 min
Bit rate : 2 999 kb/s
Width : 1 280 pixels
Height : 544 pixels
Display aspect ratio : 2.35:1
Frame rate mode : Constant
Frame rate : 23.976 (24000/1001) FPS
Color space : YUV
Chroma subsampling : 4:2:0
Bit depth : 8 bits
Scan type : Progressive
Bits/(Pixel*Frame) : 0.180
Stream size : 2.26 GiB (85%)
Title : Vid_1
Writing library : x264 core 115 r1995 c1e60b9
Encoding settings : cabac=1 / ref=6 / deblock=1:-2:-2 / analyse=0x3:0x133 / me=umh / subme=9 / psy=1 / psy_rd=1.05:0.05 / mixed_ref=1 / me_range=24 / chroma_me=1 / trellis=2 / 8x8dct=1 / cqm=0 / deadzone=21,11 / fast_pskip=0 / chroma_qp_offset=-3 / threads=6 / sliced_threads=0 / slices=4 / nr=0 / decimate=1 / interlaced=0 / bluray_compat=1 / constrained_intra=0 / bframes=3 / b_pyramid=1 / b_adapt=2 / b_bias=0 / direct=3 / weightb=1 / open_gop=1 / weightp=1 / keyint=250 / keyint_min=23 / scenecut=44 / intra_refresh=0 / rc_lookahead=48 / rc=2pass / mbtree=1 / bitrate=2999 / ratetol=1.5 / qcomp=0.60 / qpmin=0 / qpmax=69 / qpstep=4 / cplxblur=20.0 / qblur=0.5 / ip_ratio=1.40 / aq=2:1.40
Language : English
Default : Yes
Forced : No
Color range : Limited
Color primaries : BT.709
Transfer characteristics : BT.709
Matrix coefficients : BT.709

Audio
ID : 2
Format : AC-3
Format/Info : Audio Coding 3
Format settings, Endianness : Big
Codec ID : A_AC3
Duration : 1 h 50 min
Bit rate mode : Constant
Bit rate : 448 kb/s
Channel(s) : 6 channels
Channel positions : Front: L C R, Side: L R, LFE
Sampling rate : 48.0 kHz
Frame rate : 31.250 FPS (1536 SPF)
Bit depth : 16 bits
Compression mode : Lossy
Stream size : 354 MiB (13%)
Title : Au_0
Service kind : Complete Main
Default : Yes
Forced : No





True Grit (2010)


True Grit (2010)


True Grit (2010)


True Grit (2010)


True Grit (2010)