Twilight Zone: The Movie (1983)

Posted By: Tavaz
1080p (FullHD) / BDRip IMDb
Twilight Zone: The Movie (1983)

Twilight Zone: The Movie (1983)
BDRip | MKV | 1920x1080 | English | H265 @ 3425 kbps | AC-3 @ 448 kbps | 1 h 41 min | 2.75 GiB
Subtitles: English
Genre: Drama, Fantasy, Horror, Science Fiction, Thriller

Four directors collaborated to remake four episodes of the popular television series 'The Twilight Zone' for this movie. The episodes are updated slightly and in color (the television show was in black-and-white), but very true to the originals, where eerie and disturbing situations gradually spin out of control. "A Quality of Mercy", "Kick the Can", "It's a Good Life", and "Nightmare at 20,000 Feet".

3693d73a41cd444483f6cf86f70edf10.mkv (2.7 GB)
3693d73a41cd444483f6cf86f70edf10(1).mkv (2.7 GB)



General
Complete name : ./3693d73a41cd444483f6cf86f70edf10.mkv
Format : Matroska
Format version : Version 2
File size : 2.75 GiB
Duration : 1 h 41 min
Overall bit rate : 3 886 kb/s
Encoded date : UTC 2018-03-24 17:58:08
Writing application : DVDFab 10.0.8.7
Writing library : libebml v1.3.4 + libmatroska v1.4.5

Video
ID : 1
Format : HEVC
Format/Info : High Efficiency Video Coding
Format profile : Main 10@L4@Main
Codec ID : V_MPEGH/ISO/HEVC
Duration : 1 h 41 min
Bit rate : 3 426 kb/s
Width : 1 920 pixels
Height : 1 080 pixels
Display aspect ratio : 16:9
Frame rate mode : Constant
Frame rate : 23.976 (24000/1001) FPS
Color space : YUV
Chroma subsampling : 4:2:0
Bit depth : 10 bits
Bits/(Pixel*Frame) : 0.069
Stream size : 2.42 GiB (88%)
Default : Yes
Forced : No
Color range : Limited
Color primaries : BT.709
Transfer characteristics : BT.709
Matrix coefficients : BT.709

Audio
ID : 2
Format : AC-3
Format/Info : Audio Coding 3
Format settings, Endianness : Big
Codec ID : A_AC3
Duration : 1 h 41 min
Bit rate mode : Constant
Bit rate : 448 kb/s
Channel(s) : 6 channels
Channel positions : Front: L C R, Side: L R, LFE
Sampling rate : 48.0 kHz
Frame rate : 31.250 FPS (1536 SPF)
Bit depth : 16 bits
Compression mode : Lossy
Stream size : 325 MiB (12%)
Language : English
Service kind : Complete Main
Default : Yes
Forced : No

Text
ID : 3
Format : VobSub
Codec ID : S_VOBSUB
Codec ID/Info : Picture based subtitle format used on DVDs
Duration : 1 h 40 min
Bit rate : 10.0 kb/s
Count of elements : 1295
Stream size : 7.18 MiB (0%)
Language : English
Default : No
Forced : No

Menu
00:00:00.000 : en:(01)00:00:00:000
00:05:32.165 : en:(02)00:05:32:165
00:08:07.487 : en:(03)00:08:07:487
00:12:33.252 : en:(04)00:12:33:252
00:18:45.624 : en:(05)00:18:45:624
00:21:05.764 : en:(06)00:21:05:764
00:24:05.444 : en:(07)00:24:05:444
00:26:38.597 : en:(08)00:26:38:597
00:29:23.094 : en:(09)00:29:23:094
00:35:54.485 : en:(10)00:35:54:485
00:39:35.539 : en:(11)00:39:35:539
00:42:30.214 : en:(12)00:42:30:214
00:47:34.685 : en:(13)00:47:34:685
00:50:01.999 : en:(14)00:50:01:999
00:54:30.267 : en:(15)00:54:30:267
00:58:11.154 : en:(16)00:58:11:154
01:01:12.669 : en:(17)01:01:12:669
01:03:48.157 : en:(18)01:03:48:157
01:07:18.200 : en:(19)01:07:18:200
01:09:43.179 : en:(20)01:09:43:179
01:13:43.419 : en:(21)01:13:43:419
01:17:59.174 : en:(22)01:17:59:174
01:23:46.688 : en:(23)01:23:46:688
01:26:44.365 : en:(24)01:26:44:365
01:31:04.125 : en:(25)01:31:04:125
01:33:16.257 : en:(26)01:33:16:257
01:35:26.887 : en:(27)01:35:26:887
01:41:15.027 : en:(28)01:41:15:027





Twilight Zone: The Movie (1983)


Twilight Zone: The Movie (1983)


Twilight Zone: The Movie (1983)


Twilight Zone: The Movie (1983)


Twilight Zone: The Movie (1983)