Two Little Boys (2012)

Posted By: ParRus
Two Little Boys (2012)

Two Little Boys (2012)
DVDRip | English | AVI | 720 x 304 | DX50 ~776 Kbps | 25 fps
AC-3 | 448 kbps | 48.0 KHz | 2 channels | 1h 41mn | 895 MB
Genre: Comedy

When Nige finds himself in a spot of bother after a series of unfortunate incidents, he is forced to ask Deano for help. The problem is Deano is not really the kind of guy you should turn to in a crisis.
Director: Robert Sarkies
Stars: Bret McKenzie, Hamish Blake, Maaka Pohatu
Country: New Zealand
IMDB info

General
Complete name : Two.Little.Boys.2012.DVDRip.avi
Format : DivX
Format/Info : Hack of AVI
File size : 895 MiB
Duration : 1h 41mn
Overall bit rate : 1 234 Kbps
Video #0
ID : 0
Format : MPEG-4 Visual
Format profile : Advanced Simple@L5
Format settings, BVOP : 1
Format settings, QPel : No
Format settings, GMC : No warppoints
Format settings, Matrix : Default (H.263)
Muxing mode : Packed bitstream
Codec ID : DX50
Codec ID/Hint : DivX 5
Duration : 1h 41mn
Bit rate : 776 Kbps
Width : 720 pixels
Height : 304 pixels
Display aspect ratio : 2.35:1
Frame rate : 25.000 fps
Color space : YUV
Chroma subsampling : 4:2:0
Bit depth : 8 bits
Scan type : Progressive
Compression mode : Lossy
Bits/(Pixel*Frame) : 0.142
Stream size : 563 MiB (63%)
Title : Video
Writing library : XviD 1.2.1 (UTC 2008-12-04)
Audio #1
ID : 1
Format : AC-3
Format/Info : Audio Coding 3
Mode extension : CM (complete main)
Codec ID : 2000
Duration : 1h 41mn
Bit rate mode : Constant
Bit rate : 448 Kbps
Channel(s) : 6 channels
Channel positions : Front: L C R, Side: L R, LFE
Sampling rate : 48.0 KHz
Bit depth : 16 bits
Compression mode : Lossy
Stream size : 325 MiB (36%)
Alignment : Split accross interleaves
Interleave, duration : 40 ms (1.00 video frame)
Interleave, preload duration : 500 ms
Title : Audio

ScreenShots

Two Little Boys (2012)

Two Little Boys (2012)

Two Little Boys (2012)

For more, Visit my AH-blog

no mirrors please, Follow The Rules