Um Filme Falado / A Talking Picture (2003)

Posted By: Rare-1
Um Filme Falado / A Talking Picture (2003)

Um Filme Falado / A Talking Picture (2003)
DVDRip | MKV | 704 x 552 | AVC @ 1955 Kbps | 94 min | 1.42 Gb
Audio: Portuguese AC3 2.0 @ 192 Kbps | Subs: English (embedded)
Genre: Comedy, Drama, History | Portugal

A meditation on civilization. July, 2001: friends wave as a cruise ship departs Lisbon for Mediterranean ports and the Indian Ocean. On board and on day trips in Marseilles, Pompeii, Athens, Istanbul, and Cairo, a professor tells her young daughter about myth, history, religion, and wars. Men approach her; she's cool, on her way to her husband in Bombay. After Cairo, for two evenings divided by a stop in Aden, the captain charms three successful, famous (and childless) women, who talk with wit and intellect, each understanding the others' native tongue, a European union. The captain asks mother and child to join them. He gives the girl a gift. Helena sings. Life can be sweet.

IMDB 6.7/10 from 1557 users

Director: Manoel de Oliveira
Writer: Manoel de Oliveira (scenario and dialogue)
Actors: Leonor Silveira, Filipa de Almeida, John Malkovich, Catherine Deneuve
Rated: N/A
Runtime: 94 min

Elder statesman of Portuguese filmmaking Manoel de Oliveira directs the dialogue-driven drama A Talking Picture. Starting in Lisbon, the film involves a Mediterranean cruise with mother Rosa Maria (Leonor Silveira) and daughter Maria Joana (Filipa de Almedia). From France to Turkey, the tourists travel to various stops as Rosa Maria talks to her daughter about world history. Several international stars show up in cameo roles, including John Malkovich, Irene Papas, Catherine Deneuve, and Stefania Sandrelli – each speaking in his or her native language. A Talking Picture was shown in competition at the 2003 Venice Film Festival.

Um Filme Falado / A Talking Picture (2003)

Um Filme Falado / A Talking Picture (2003)

Um Filme Falado / A Talking Picture (2003)

Um Filme Falado / A Talking Picture (2003)


Um Filme Falado / A Talking Picture (2003)


More Screenshots:

Um Filme Falado / A Talking Picture (2003)



General
Unique ID : 248956696457701786661034635469877269501 (0xBB4B50CEDAF3F0619C9F4D4D801DD3FD)
Complete name : F:\Manoel de Oliveira - (2003) A Talking Picture.mkv
Format : Matroska
Format version : Version 2
File size : 1.42 GiB
Duration : 1h 34mn
Overall bit rate : 2 149 Kbps
Encoded date : UTC 2015-04-04 15:37:39
Writing application : mkvmerge v7.8.0 ('River Man') 32bit built on Mar 27 2015 16:18:02
Writing library : libebml v1.3.1 + libmatroska v1.4.2
DURATION : 01:34:15.964000000
NUMBER_OF_FRAMES : 859
NUMBER_OF_BYTES : 31956
_STATISTICS_WRITING_APP : mkvmerge v7.8.0 ('River Man') 32bit built on Mar 27 2015 16:18:02
_STATISTICS_WRITING_DATE_UTC : 2015-04-04 15:37:39
_STATISTICS_TAGS : BPS DURATION NUMBER_OF_FRAMES NUMBER_OF_BYTES

Video
ID : 1
Format : AVC
Format/Info : Advanced Video Codec
Format profile : High@L3.1
Format settings, CABAC : Yes
Format settings, ReFrames : 8 frames
Codec ID : V_MPEG4/ISO/AVC
Duration : 1h 34mn
Bit rate : 1 955 Kbps
Width : 704 pixels
Height : 552 pixels
Display aspect ratio : 16:9
Original display aspect ratio : 16:9
Frame rate mode : Constant
Frame rate : 24.000 fps
Color space : YUV
Chroma subsampling : 4:2:0
Bit depth : 8 bits
Scan type : Progressive
Bits/(Pixel*Frame) : 0.210
Stream size : 1.26 GiB (89%)
Writing library : x264 core 146 r2538 121396c
Encoding settings : cabac=1 / ref=8 / deblock=1:-3:-3 / analyse=0x3:0x133 / me=umh / subme=11 / psy=1 / psy_rd=1.00:0.15 / mixed_ref=1 / me_range=32 / chroma_me=1 / trellis=2 / 8x8dct=1 / cqm=0 / deadzone=21,11 / fast_pskip=0 / chroma_qp_offset=-3 / threads=12 / lookahead_threads=3 / sliced_threads=0 / nr=0 / decimate=0 / interlaced=0 / bluray_compat=0 / constrained_intra=0 / bframes=16 / b_pyramid=2 / b_adapt=2 / b_bias=0 / direct=3 / weightb=1 / open_gop=0 / weightp=2 / keyint=240 / keyint_min=24 / scenecut=40 / intra_refresh=0 / rc_lookahead=100 / rc=2pass / mbtree=0 / bitrate=1955 / ratetol=3.0 / qcomp=0.60 / qpmin=0 / qpmax=69 / qpstep=4 / cplxblur=20.0 / qblur=0.5 / vbv_maxrate=14000 / vbv_bufsize=14000 / nal_hrd=none / filler=0 / ip_ratio=1.40 / pb_ratio=1.30 / aq=1:1.00
Language : English
Default : Yes
Forced : No
DURATION : 01:34:32.292000000
NUMBER_OF_FRAMES : 136135
NUMBER_OF_BYTES : 1386259380
_STATISTICS_WRITING_APP : mkvmerge v7.8.0 ('River Man') 32bit built on Mar 27 2015 16:18:02
_STATISTICS_WRITING_DATE_UTC : 2015-04-04 15:37:39
_STATISTICS_TAGS : BPS DURATION NUMBER_OF_FRAMES NUMBER_OF_BYTES

Audio
ID : 2
Format : AC-3
Format/Info : Audio Coding 3
Mode extension : CM (complete main)
Format settings, Endianness : Big
Codec ID : A_AC3
Duration : 1h 34mn
Bit rate mode : Constant
Bit rate : 192 Kbps
Channel(s) : 2 channels
Channel positions : Front: L R
Sampling rate : 48.0 KHz
Bit depth : 16 bits
Compression mode : Lossy
Stream size : 130 MiB (9%)
Default : Yes
Forced : No

Text
ID : 3
Format : UTF-8
Codec ID : S_TEXT/UTF8
Codec ID/Info : UTF-8 Plain Text
Default : Yes
Forced : No




Many Thanks to Original uploader.


For More Rare Movies Check out my blog!


Download Links :

No Mirrors Please