Unbroken (2014)

Posted By: Tavaz
720p (HD) / BDRip IMDb
Unbroken (2014)

Unbroken (2014)
BDRip | MOV | 1280x536 | English | H264 @ 847 kbps | AAC @ 93 kbps | 2 h 17 min | 929 MiB
Genre: Biography, Drama, Sport

A chronicle of the life of Louis Zamperini, an Olympic runner who was taken prisoner by Japanese forces during World War II.

Unbroken.2014.DVDSCR.X264-PLAYNOW_0.srt (42.5 KB)
Unbroken.2014.720p.BluRay.x264.YIFY.mp4 (928.9 MB)
bn_hitnews_468x90.gif (10.5 KB)



General
Complete name : ./Unbroken.2014.720p.BluRay.x264.YIFY.mp4
Format : MPEG-4
Format profile : Base Media
Codec ID : isom (isom/avc1)
File size : 929 MiB
Duration : 2 h 17 min
Overall bit rate mode : Variable
Overall bit rate : 945 kb/s
Encoded date : UTC 2015-05-01 14:12:10
Tagged date : UTC 2015-05-01 14:12:10

Video
ID : 1
Format : AVC
Format/Info : Advanced Video Codec
Format profile : High@L4.1
Format settings : CABAC / 4 Ref Frames
Format settings, CABAC : Yes
Format settings, RefFrames : 4 frames
Codec ID : avc1
Codec ID/Info : Advanced Video Coding
Duration : 2 h 17 min
Bit rate : 847 kb/s
Maximum bit rate : 7 267 kb/s
Width : 1 280 pixels
Height : 536 pixels
Display aspect ratio : 2.40:1
Frame rate mode : Constant
Frame rate : 23.976 (24000/1001) FPS
Original frame rate : 23.976 (23976/1000) FPS
Color space : YUV
Chroma subsampling : 4:2:0
Bit depth : 8 bits
Scan type : Progressive
Bits/(Pixel*Frame) : 0.051
Stream size : 833 MiB (90%)
Writing library : x264 core 123 r2189 35cf912
Encoding settings : cabac=1 / ref=4 / deblock=1:-1:-1 / analyse=0x3:0x133 / me=umh / subme=9 / psy=1 / psy_rd=1.00:0.15 / mixed_ref=1 / me_range=24 / chroma_me=1 / trellis=2 / 8x8dct=1 / cqm=0 / deadzone=21,11 / fast_pskip=0 / chroma_qp_offset=-3 / threads=48 / sliced_threads=0 / nr=0 / decimate=1 / interlaced=0 / bluray_compat=0 / constrained_intra=0 / bframes=3 / b_pyramid=2 / b_adapt=2 / b_bias=0 / direct=3 / weightb=1 / open_gop=0 / weightp=2 / keyint=250 / keyint_min=23 / scenecut=40 / intra_refresh=0 / rc_lookahead=60 / rc=2pass / mbtree=1 / bitrate=847 / ratetol=1.0 / qcomp=0.60 / qpmin=0 / qpmax=69 / qpstep=4 / cplxblur=20.0 / qblur=0.5 / vbv_maxrate=31250 / vbv_bufsize=31250 / nal_hrd=none / ip_ratio=1.40 / aq=1:1.00
Encoded date : UTC 2015-05-01 14:12:10
Tagged date : UTC 2015-05-01 14:12:18
Color range : Limited
Color primaries : BT.709
Matrix coefficients : BT.709

Audio
ID : 2
Format : AAC
Format/Info : Advanced Audio Codec
Format profile : LC
Codec ID : mp4a-40-2
Duration : 2 h 17 min
Bit rate mode : Variable
Bit rate : 93.7 kb/s
Maximum bit rate : 103 kb/s
Channel(s) : 2 channels
Channel positions : Front: L R
Sampling rate : 48.0 kHz
Frame rate : 46.875 FPS (1024 SPF)
Compression mode : Lossy
Stream size : 92.2 MiB (10%)
Language : English
Encoded date : UTC 2015-05-01 14:12:17
Tagged date : UTC 2015-05-01 14:12:18





Unbroken (2014)


Unbroken (2014)


Unbroken (2014)


Unbroken (2014)


Unbroken (2014)