Tags
Language
Tags

Unmasking Jihadi John Anatomy of a Terrorist (2019)

Posted By: Without
1080p (FullHD) / WEB-DL IMDb
Unmasking Jihadi John Anatomy of a Terrorist (2019)

Unmasking Jihadi John Anatomy of a Terrorist (2019)
WEB-DL | MKV | 1 h 38 min | 1.35 GB | 720x404 | AVC@1820 kb/s | English AAC@128 kb/s, 2 ch
WEB-DL 720p | MKV | 1 h 38 min | 3.93 GB | 1280x720 | AVC@5471 kb/s | English AC3@224 kb/s, 2 ch
WEB-DL 1080p | MKV | 1 h 38 min | 6.66 GB | 1920x1080 | AVC@9434 kb/s | English AC3@224 kb/s, 2 ch
Subs: English
Genre: Documentary

This feature documentary tells the inside story behind the hunt for ISIS poster boy "Jihadi John" by the US and British military and intelligence services. It interrogates the twisted worldview espoused by ISIS - the richest and most notorious Islamist terrorist organisation in history - and its propaganda machine which was operated by "Jihadi millennials" who turned social media sites such as Twitter and YouTube into recruitment platforms. This is the definitive story about the formation and collapse of ISIS as a "state", told through extraordinary first-hand accounts of key counter-terrorism and intelligence officials who identified "Jihadi John" as British terrorist Mohammed Emwazi - and ultimately killed him. The film explores the shattered lives, emotional and psychological turmoil of the family members whose relatives were barbarically murdered by Emwazi. It also projects the astonishingly self-critical evaluations by CIA, Scotland Yard, and Pentagon officials who expose their …



General
Unmasking.Jihadi.John.Anatomy.of.a.Terrorist.2019.AMZN.WEB-DL.AAC2.0.H.264-NTG.mkv
Format : Matroska
Format version : Version 4 / Version 2
File size : 1.35 GB
Duration : 1 h 38 min
Overall bit rate : 1951 kb/s
Encoded date : UTC 2019-08-01 01:00:22
Writing application : mkvmerge v21.0.0 ('Tardigrades Will Inherit The Earth') 64-bit
Writing library : libebml v1.3.5 + libmatroska v1.4.8

Video
ID : 1
Format : AVC
Format/Info : Advanced Video Codec
Format profile : High@L3
Format settings, CABAC : Yes
Format settings, ReFrames : 4 frames
Codec ID : V_MPEG4/ISO/AVC
Duration : 1 h 38 min
Bit rate mode : Constant
Bit rate : 1820 kb/s
Nominal bit rate : 2000 kb/s
Width : 720 pixels
Height : 404 pixels
Display aspect ratio : 16:9
Frame rate mode : Constant
Frame rate : 23.976 (24000/1001) FPS
Color space : YUV
Chroma subsampling : 4:2:0
Bit depth : 8 bits
Scan type : Progressive
Bits/(Pixel*Frame) : 0.261
Stream size : 1.26 GB (93%)
Language : English
Default : Yes
Forced : No
Color range : Limited

Audio
ID : 2
Format : AAC
Format/Info : Advanced Audio Codec
Format profile : LC
Codec ID : A_AAC
Duration : 1 h 38 min
Bit rate : 128 kb/s
Channel(s) : 2 channels
Channel positions : Front: L R
Sampling rate : 48.0 kHz
Frame rate : 46.875 FPS (1024 spf)
Compression mode : Lossy
Stream size : 90.4 MB (7%)
Language : English
Default : Yes
Forced : No

Text #1
ID : 3
Format : UTF-8
Codec ID : S_TEXT/UTF8
Codec ID/Info : UTF-8 Plain Text
Duration : 1 h 36 min
Bit rate : 98 b/s
Count of elements : 1731
Stream size : 69.7 KiB (0%)
Language : English
Default : No
Forced : No

Text #2
ID : 4
Format : UTF-8
Codec ID : S_TEXT/UTF8
Codec ID/Info : UTF-8 Plain Text
Duration : 1 h 36 min
Bit rate : 99 b/s
Count of elements : 1781
Stream size : 71.0 KiB (0%)
Title : SDH
Language : English
Default : No
Forced : No


General
Unmasking.Jihadi.John.Anatomy.of.a.Terrorist.2019.720p.AMZN.WEB-DL.DDP2.0.H.264-NTG.mkv
Format : Matroska
Format version : Version 4 / Version 2
File size : 3.93 GB
Duration : 1 h 38 min
Overall bit rate : 5697 kb/s
Encoded date : UTC 2019-08-01 00:55:48
Writing application : mkvmerge v21.0.0 ('Tardigrades Will Inherit The Earth') 64-bit
Writing library : libebml v1.3.5 + libmatroska v1.4.8

Video
ID : 1
Format : AVC
Format/Info : Advanced Video Codec
Format profile : High@L3.1
Format settings, CABAC : Yes
Format settings, ReFrames : 4 frames
Codec ID : V_MPEG4/ISO/AVC
Duration : 1 h 38 min
Bit rate mode : Constant
Bit rate : 5471 kb/s
Nominal bit rate : 6000 kb/s
Width : 1280 pixels
Height : 720 pixels
Display aspect ratio : 16:9
Frame rate mode : Constant
Frame rate : 23.976 (24000/1001) FPS
Color space : YUV
Chroma subsampling : 4:2:0
Bit depth : 8 bits
Scan type : Progressive
Bits/(Pixel*Frame) : 0.248
Stream size : 3.77 GB (96%)
Language : English
Default : Yes
Forced : No
Color range : Limited
Color primaries : BT.709
Transfer characteristics : BT.709
Matrix coefficients : BT.709

Audio
ID : 2
Format : E-AC-3
Format/Info : Enhanced Audio Coding 3
Format settings, Endianness : Big
Codec ID : A_EAC3
Duration : 1 h 38 min
Bit rate mode : Constant
Bit rate : 224 kb/s
Channel(s) : 2 channels
Channel positions : Front: L R
Sampling rate : 48.0 kHz
Frame rate : 187.500 FPS (256 spf)
Compression mode : Lossy
Stream size : 158 MB (4%)
Language : English
Default : Yes
Forced : No

Text #1
ID : 3
Format : UTF-8
Codec ID : S_TEXT/UTF8
Codec ID/Info : UTF-8 Plain Text
Duration : 1 h 36 min
Bit rate : 98 b/s
Count of elements : 1731
Stream size : 69.7 KiB (0%)
Language : English
Default : No
Forced : No

Text #2
ID : 4
Format : UTF-8
Codec ID : S_TEXT/UTF8
Codec ID/Info : UTF-8 Plain Text
Duration : 1 h 36 min
Bit rate : 99 b/s
Count of elements : 1781
Stream size : 71.0 KiB (0%)
Title : SDH
Language : English
Default : No
Forced : No


General
Unmasking.Jihadi.John.Anatomy.of.a.Terrorist.2019.1080p.AMZN.WEB-DL.DDP2.0.H.264-NTG.mkv
Format : Matroska
Format version : Version 4 / Version 2
File size : 6.66 GB
Duration : 1 h 38 min
Overall bit rate : 9660 kb/s
Encoded date : UTC 2019-08-01 00:50:20
Writing application : mkvmerge v21.0.0 ('Tardigrades Will Inherit The Earth') 64-bit
Writing library : libebml v1.3.5 + libmatroska v1.4.8

Video
ID : 1
Format : AVC
Format/Info : Advanced Video Codec
Format profile : High@L4
Format settings, CABAC : Yes
Format settings, ReFrames : 4 frames
Codec ID : V_MPEG4/ISO/AVC
Duration : 1 h 38 min
Bit rate mode : Constant
Bit rate : 9434 kb/s
Nominal bit rate : 10000 kb/s
Width : 1920 pixels
Height : 1080 pixels
Display aspect ratio : 16:9
Frame rate mode : Constant
Frame rate : 23.976 (24000/1001) FPS
Color space : YUV
Chroma subsampling : 4:2:0
Bit depth : 8 bits
Scan type : Progressive
Bits/(Pixel*Frame) : 0.190
Stream size : 6.51 GB (98%)
Language : English
Default : Yes
Forced : No
Color range : Limited
Color primaries : BT.709
Transfer characteristics : BT.709
Matrix coefficients : BT.709

Audio
ID : 2
Format : E-AC-3
Format/Info : Enhanced Audio Coding 3
Format settings, Endianness : Big
Codec ID : A_EAC3
Duration : 1 h 38 min
Bit rate mode : Constant
Bit rate : 224 kb/s
Channel(s) : 2 channels
Channel positions : Front: L R
Sampling rate : 48.0 kHz
Frame rate : 187.500 FPS (256 spf)
Compression mode : Lossy
Stream size : 158 MB (2%)
Language : English
Default : Yes
Forced : No

Text #1
ID : 3
Format : UTF-8
Codec ID : S_TEXT/UTF8
Codec ID/Info : UTF-8 Plain Text
Duration : 1 h 36 min
Bit rate : 98 b/s
Count of elements : 1731
Stream size : 69.7 KiB (0%)
Language : English
Default : No
Forced : No

Text #2
ID : 4
Format : UTF-8
Codec ID : S_TEXT/UTF8
Codec ID/Info : UTF-8 Plain Text
Duration : 1 h 36 min
Bit rate : 99 b/s
Count of elements : 1781
Stream size : 71.0 KiB (0%)
Title : SDH
Language : English
Default : No
Forced : No



WEB-DL Screenshots

Unmasking Jihadi John Anatomy of a Terrorist (2019)

Unmasking Jihadi John Anatomy of a Terrorist (2019)

Unmasking Jihadi John Anatomy of a Terrorist (2019)


WEB-DL 720p Screenshots

Unmasking Jihadi John Anatomy of a Terrorist (2019)

Unmasking Jihadi John Anatomy of a Terrorist (2019)

Unmasking Jihadi John Anatomy of a Terrorist (2019)


WEB-DL 1080p Screenshots

Unmasking Jihadi John Anatomy of a Terrorist (2019)

Unmasking Jihadi John Anatomy of a Terrorist (2019)

Unmasking Jihadi John Anatomy of a Terrorist (2019)


Come Visit My Blog (•‿•)