Tags
Language
Tags

V for Vendetta (2005)

Posted By: Nedulow
1080p (FullHD) / BDRip IMDb
V for Vendetta (2005)

V for Vendetta (2005)
BRRip | MKV / AVC@1660 kb/s | 1024x426 | 2h 12mn
English: AC3, 384 kb/s (6 ch) | Subtitles: English | 1.89 GB
BDRip 720p | MKV / AVC@5175 kb/s | 1280x534 | 2h 12mn
English: AC3, 640 kb/s (6 ch) | Subtitles: English | 5.38 GB
BDRip 1080p | MKV / AVC@9396 kb/s | 1920x800 | 2h 12mn
English: DTS, 1509 kb/s (6 ch) | Subtitles: English, Čeština, Nederlands, Ελληνικά, Português, Română, Svenska, | 10.1 GB
Genre: Action, Drama, Sci-Fi, Thriller

n a future British tyranny, a shadowy freedom fighter, known only by the alias of "V," plots to overthrow it with the help of a young woman.


General
Unique ID : 191958926984588539796056754880812002621 (0x9069F1CE8045DCAA93812614AFE1AD3D)
Complete name : C:\V.for.Vendetta.2005.BRRip.mkv
Format : Matroska
Format version : Version 2
File size : 1.89 GiB
Duration : 2 h 12 min
Overall bit rate : 2 046 kb/s
Movie name : V.for.Vendetta.2005.Kinozal.TV-AVC
Encoded date : UTC 2021-12-06 13:12:58
Writing application : mkvmerge v7.8.0 ('River Man') 32bit built on Apr 3 2015 12:11:22
Writing library : libebml v1.3.1 + libmatroska v1.4.2

Video
ID : 1
Format : AVC
Format/Info : Advanced Video Codec
Format profile : High@L4.1
Format settings : CABAC / 9 Ref Frames
Format settings, CABAC : Yes
Format settings, Reference : 9 frames
Codec ID : V_MPEG4/ISO/AVC
Duration : 2 h 12 min
Bit rate : 1 660 kb/s
Width : 1 024 pixels
Height : 426 pixels
Display aspect ratio : 2.40:1
Frame rate mode : Constant
Frame rate : 23.976 FPS
Color space : YUV
Chroma subsampling : 4:2:0
Bit depth : 8 bits
Scan type : Progressive
Bits/(Pixel*Frame) : 0.159
Stream size : 1.50 GiB (79%)
Writing library : x264 core 114 r1924 08d04a4
Encoding settings : cabac=1 / ref=9 / deblock=1:-2:-2 / analyse=0x3:0x133 / me=umh / subme=10 / psy=1 / psy_rd=1.00:0.10 / mixed_ref=1 / me_range=48 / chroma_me=1 / trellis=2 / 8x8dct=1 / cqm=0 / deadzone=21,11 / fast_pskip=0 / chroma_qp_offset=1 / threads=3 / sliced_threads=0 / nr=0 / decimate=1 / interlaced=0 / constrained_intra=0 / bframes=5 / b_pyramid=2 / b_adapt=2 / b_bias=-25 / direct=1 / weightb=1 / open_gop=0 / weightp=2 / keyint=250 / keyint_min=23 / scenecut=40 / intra_refresh=0 / rc_lookahead=40 / rc=2pass / mbtree=1 / bitrate=1660 / ratetol=1.0 / qcomp=0.80 / qpmin=0 / qpmax=69 / qpstep=4 / cplxblur=20.0 / qblur=0.5 / ip_ratio=1.40 / aq=1:1.00
Language : English
Default : Yes
Forced : No

Audio
ID : 2
Format : AC-3
Format/Info : Audio Coding 3
Commercial name : Dolby Digital
Codec ID : A_AC3
Duration : 2 h 12 min
Bit rate mode : Constant
Bit rate : 384 kb/s
Channel(s) : 6 channels
Channel layout : L R C LFE Ls Rs
Sampling rate : 48.0 kHz
Frame rate : 31.250 FPS (1536 SPF)
Bit depth : 16 bits
Compression mode : Lossy
Stream size : 364 MiB (19%)
Language : English
Service kind : Complete Main
Default : No
Forced : No

Text
ID : 3
Format : UTF-8
Codec ID : S_TEXT/UTF8
Codec ID/Info : UTF-8 Plain Text
Language : English
Default : No
Forced : No

Menu
00:00:00.000 : :Chapter 01
00:02:24.310 : :Chapter 02
00:09:07.880 : :Chapter 03
00:11:00.409 : :Chapter 04
00:16:26.985 : :Chapter 05
00:21:56.648 : :Chapter 06
00:25:01.500 : :Chapter 07
00:30:09.808 : :Chapter 08
00:35:37.468 : :Chapter 09
00:40:37.435 : :Chapter 10
00:43:14.258 : :Chapter 11
00:48:02.713 : :Chapter 12
00:49:40.978 : :Chapter 13
00:54:11.081 : :Chapter 14
00:56:39.562 : :Chapter 15
01:00:31.294 : :Chapter 16
01:04:47.049 : :Chapter 17
01:09:41.177 : :Chapter 18
01:12:07.489 : :Chapter 19
01:18:49.725 : :Chapter 20
01:21:13.034 : :Chapter 21
01:26:01.656 : :Chapter 22
01:29:20.688 : :Chapter 23
01:32:08.356 : :Chapter 24
01:36:21.275 : :Chapter 25
01:39:28.462 : :Chapter 26
01:44:17.584 : :Chapter 27
01:48:50.357 : :Chapter 28
01:52:03.717 : :Chapter 29
01:53:57.664 : :Chapter 30
01:57:51.564 : :Chapter 31
01:59:35.334 : :Chapter 32
02:04:38.471 : :Chapter 33



General
Unique ID : 253988127077597454205928788400998990231 (0xBF14557D781B4C09A8743FFF10E04197)
Complete name : C:\V.for.Vendetta.2005.BDRip.720p.mkv
Format : Matroska
Format version : Version 2
File size : 5.38 GiB
Duration : 2 h 12 min
Overall bit rate : 5 814 kb/s
Movie name : V for Vendetta.(2005).BDRip.720p.[denis100]
Encoded date : UTC 2021-12-06 13:11:42
Writing application : mkvmerge v7.8.0 ('River Man') 32bit built on Apr 3 2015 12:11:22
Writing library : libebml v1.3.1 + libmatroska v1.4.2

Video
ID : 1
Format : AVC
Format/Info : Advanced Video Codec
Format profile : High@L4.1
Format settings : CABAC / 11 Ref Frames
Format settings, CABAC : Yes
Format settings, Reference : 11 frames
Codec ID : V_MPEG4/ISO/AVC
Duration : 2 h 12 min
Bit rate : 5 175 kb/s
Width : 1 280 pixels
Height : 534 pixels
Display aspect ratio : 2.40:1
Frame rate mode : Constant
Frame rate : 23.976 (24000/1001) FPS
Color space : YUV
Chroma subsampling : 4:2:0
Bit depth : 8 bits
Scan type : Progressive
Bits/(Pixel*Frame) : 0.316
Stream size : 4.68 GiB (87%)
Writing library : x264 core 148 r2705 3f5ed56
Encoding settings : cabac=1 / ref=11 / deblock=1:-3:-3 / analyse=0x3:0x133 / me=umh / subme=11 / psy=1 / psy_rd=1.00:0.15 / mixed_ref=1 / me_range=32 / chroma_me=1 / trellis=2 / 8x8dct=1 / cqm=0 / deadzone=21,11 / fast_pskip=0 / chroma_qp_offset=-3 / threads=6 / lookahead_threads=1 / sliced_threads=0 / nr=0 / decimate=1 / interlaced=0 / bluray_compat=0 / constrained_intra=0 / bframes=11 / b_pyramid=2 / b_adapt=2 / b_bias=0 / direct=3 / weightb=1 / open_gop=0 / weightp=2 / keyint=240 / keyint_min=23 / scenecut=40 / intra_refresh=0 / rc=2pass / mbtree=0 / bitrate=5175 / ratetol=1.0 / qcomp=0.60 / qpmin=0 / qpmax=69 / qpstep=4 / cplxblur=20.0 / qblur=0.5 / ip_ratio=1.40 / pb_ratio=1.30 / aq=1:0.80
Language : English
Default : Yes
Forced : No

Audio
ID : 2
Format : AC-3
Format/Info : Audio Coding 3
Commercial name : Dolby Digital
Codec ID : A_AC3
Duration : 2 h 12 min
Bit rate mode : Constant
Bit rate : 640 kb/s
Channel(s) : 6 channels
Channel layout : L R C LFE Ls Rs
Sampling rate : 48.0 kHz
Frame rate : 31.250 FPS (1536 SPF)
Bit depth : 16 bits
Compression mode : Lossy
Stream size : 607 MiB (11%)
Language : English
Service kind : Complete Main
Default : No
Forced : No

Text
ID : 3
Format : UTF-8
Codec ID : S_TEXT/UTF8
Codec ID/Info : UTF-8 Plain Text
Language : English
Default : No
Forced : No

Menu
00:00:00.000 : en:00:00:00.000
00:02:24.310 : en:00:02:24.310
00:09:07.880 : en:00:09:07.880
00:11:00.409 : en:00:11:00.409
00:16:26.985 : en:00:16:26.985
00:21:56.648 : en:00:21:56.648
00:25:01.500 : en:00:25:01.500
00:30:09.807 : en:00:30:09.807
00:35:37.468 : en:00:35:37.468
00:40:37.434 : en:00:40:37.434
00:43:14.258 : en:00:43:14.258
00:48:02.713 : en:00:48:02.713
00:49:40.978 : en:00:49:40.978
00:54:11.081 : en:00:54:11.081
00:56:39.562 : en:00:56:39.562
01:00:31.294 : en:01:00:31.294
01:04:47.049 : en:01:04:47.049
01:09:41.176 : en:01:09:41.176
01:12:07.489 : en:01:12:07.489
01:18:49.725 : en:01:18:49.725
01:21:13.034 : en:01:21:13.034
01:26:01.656 : en:01:26:01.656
01:29:20.688 : en:01:29:20.688
01:32:08.356 : en:01:32:08.356
01:36:21.275 : en:01:36:21.275
01:39:28.462 : en:01:39:28.462
01:44:17.584 : en:01:44:17.584
01:48:50.357 : en:01:48:50.357
01:52:03.716 : en:01:52:03.716
01:53:57.664 : en:01:53:57.664
01:57:51.564 : en:01:57:51.564
01:59:35.334 : en:01:59:35.334
02:04:38.470 : en:02:04:38.470





General
Unique ID : 207343352340529027538899571438949105165 (0x9BFCE089E70D0BA2803EB73D38ADFE0D)
Complete name : C:\V.for.Vendetta.2005.BDRip.1080p.mkv
Format : Matroska
Format version : Version 2
File size : 10.1 GiB
Duration : 2 h 12 min
Overall bit rate : 10.9 Mb/s
Movie name : V for Vendetta (2005) - Release for HDCLUB
Encoded date : UTC 2021-12-06 13:10:03
Writing application : mkvmerge v7.8.0 ('River Man') 32bit built on Apr 3 2015 12:11:22
Writing library : libebml v1.3.1 + libmatroska v1.4.2

Video
ID : 1
Format : AVC
Format/Info : Advanced Video Codec
Format profile : High@L5.1
Format settings : CABAC / 5 Ref Frames
Format settings, CABAC : Yes
Format settings, Reference : 5 frames
Format settings, GOP : N=1
Codec ID : V_MPEG4/ISO/AVC
Duration : 2 h 12 min
Bit rate : 9 396 kb/s
Width : 1 920 pixels
Height : 800 pixels
Display aspect ratio : 2.40:1
Frame rate mode : Constant
Frame rate : 23.976 FPS
Color space : YUV
Chroma subsampling : 4:2:0
Bit depth : 8 bits
Scan type : Progressive
Bits/(Pixel*Frame) : 0.255
Stream size : 8.50 GiB (84%)
Writing library : x264 core 59 r859M ce13bb6
Encoding settings : cabac=1 / ref=5 / deblock=1:-3:-3 / analyse=0x3:0x133 / me=umh / subme=7 / me-prepass=0 / brdo=0 / mixed_ref=1 / me_range=24 / chroma_me=1 / trellis=0 / 8x8dct=1 / cqm=2 / deadzone=8,2 / chroma_qp_offset=0 / threads=6 / nr=0 / decimate=1 / mbaff=0 / fgo=0 / bframes=3 / b_pyramid=1 / b_adapt=1 / b_bias=0 / direct=3 / wpredb=1 / bime=1 / keyint=250 / keyint_min=25 / scenecut=40(pre) / rc=2pass / bitrate=9396 / ratetol=1.0 / rceq='blurCplx^(1-qComp)' / qcomp=1.00 / qpmin=10 / qpmax=51 / qpstep=4 / cplxblur=20.0 / qblur=0.5 / ip_ratio=1.40 / pb_ratio=1.30 / aq=2:0.30
Language : English
Default : Yes
Forced : No

Audio
ID : 2
Format : DTS
Format/Info : Digital Theater Systems
Codec ID : A_DTS
Duration : 2 h 12 min
Bit rate mode : Constant
Bit rate : 1 510 kb/s
Channel(s) : 6 channels
Channel layout : C L R Ls Rs LFE
Sampling rate : 48.0 kHz
Frame rate : 93.750 FPS (512 SPF)
Bit depth : 24 bits
Compression mode : Lossy
Stream size : 1.40 GiB (14%)
Language : English
Default : No
Forced : No

Text #1
ID : 3
Format : UTF-8
Codec ID : S_TEXT/UTF8
Codec ID/Info : UTF-8 Plain Text
Language : English
Default : No
Forced : No

Text #2
ID : 4
Format : UTF-8
Codec ID : S_TEXT/UTF8
Codec ID/Info : UTF-8 Plain Text
Language : Czech
Default : No
Forced : No

Text #3
ID : 5
Format : UTF-8
Codec ID : S_TEXT/UTF8
Codec ID/Info : UTF-8 Plain Text
Language : Dutch
Default : No
Forced : No

Text #4
ID : 6
Format : UTF-8
Codec ID : S_TEXT/UTF8
Codec ID/Info : UTF-8 Plain Text
Language : Greek
Default : No
Forced : No

Text #5
ID : 7
Format : UTF-8
Codec ID : S_TEXT/UTF8
Codec ID/Info : UTF-8 Plain Text
Language : Portuguese
Default : No
Forced : No

Text #6
ID : 8
Format : UTF-8
Codec ID : S_TEXT/UTF8
Codec ID/Info : UTF-8 Plain Text
Language : Romanian
Default : No
Forced : No

Text #7
ID : 9
Format : UTF-8
Codec ID : S_TEXT/UTF8
Codec ID/Info : UTF-8 Plain Text
Language : Swedish
Default : No
Forced : No


Screenshots BRRip

V for Vendetta (2005)


Screenshots BDRip 720p

V for Vendetta (2005)


Screenshots BDRip 1080p

V for Vendetta (2005)