Tags
Language
Tags

Vagabond / Sans toit ni loi (1985)

Posted By: Without
1080p (FullHD) / BDRip IMDb
Vagabond / Sans toit ni loi (1985)

Vagabond / Sans toit ni loi (1985)
BDRip 1080p | MKV | 1792x1080 | AVC@12.9 Mb/s | French FLAC@361 kb/s
Subs: English | 2 channels | 1 h 46 min | 9.83 GB
Genre: Drama, Romance

A young woman's body is found frozen in a ditch. Through flashbacks and interviews, we see the events that led to her inevitable death.



General
vagabond.1985.1080p.bluray.x264-usury.mkv
Format : Matroska
Format version : Version 4 / Version 2
File size : 9.83 GiB
Duration : 1 h 46 min
Overall bit rate mode : Variable
Overall bit rate : 13.3 Mb/s
Encoded date : UTC 2018-01-19 04:39:55
Writing application : mkvmerge v8.3.0 ('Over the Horizon') 64bit
Writing library : libebml v1.3.1 + libmatroska v1.4.2

Video
ID : 1
Format : AVC
Format/Info : Advanced Video Codec
Format profile : High@L4.1
Format settings, CABAC : Yes
Format settings, ReFrames : 4 frames
Codec ID : V_MPEG4/ISO/AVC
Duration : 1 h 46 min
Bit rate : 12.9 Mb/s
Width : 1 792 pixels
Height : 1 080 pixels
Display aspect ratio : 5:3
Frame rate mode : Constant
Frame rate : 23.976 (24000/1001) FPS
Color space : YUV
Chroma subsampling : 4:2:0
Bit depth : 8 bits
Scan type : Progressive
Bits/(Pixel*Frame) : 0.278
Stream size : 9.56 GiB (97%)
Writing library : x264 core 155 r2893 b00bcaf
Encoding settings : cabac=1 / ref=4 / deblock=1:-3:-3 / analyse=0x3:0x133 / me=umh / subme=9 / psy=1 / psy_rd=1.00:0.00 / mixed_ref=1 / me_range=16 / chroma_me=1 / trellis=2 / 8x8dct=1 / cqm=0 / deadzone=21,11 / fast_pskip=0 / chroma_qp_offset=-2 / threads=12 / lookahead_threads=1 / sliced_threads=0 / nr=0 / decimate=1 / interlaced=0 / bluray_compat=0 / constrained_intra=0 / bframes=3 / b_pyramid=2 / b_adapt=1 / b_bias=0 / direct=3 / weightb=1 / open_gop=0 / weightp=2 / keyint=240 / keyint_min=24 / scenecut=40 / intra_refresh=0 / rc_lookahead=50 / rc=2pass / mbtree=1 / bitrate=12900 / ratetol=1.0 / qcomp=0.60 / qpmin=0 / qpmax=69 / qpstep=4 / cplxblur=20.0 / qblur=0.5 / ip_ratio=1.40 / aq=1:1.00
Language : English
Default : Yes
Forced : No

Audio
ID : 2
Format : FLAC
Format/Info : Free Lossless Audio Codec
Codec ID : A_FLAC
Duration : 1 h 46 min
Bit rate mode : Variable
Bit rate : 361 kb/s
Channel(s) : 2 channels
Channel positions : Front: L R
Sampling rate : 48.0 kHz
Frame rate : 11.719 FPS (4096 spf)
Bit depth : 16 bits
Stream size : 274 MiB (3%)
Writing library : libFLAC 1.2.1 (UTC 2007-09-17)
Language : French
Default : Yes
Forced : No

Text
ID : 3
Format : UTF-8
Codec ID : S_TEXT/UTF8
Codec ID/Info : UTF-8 Plain Text
Duration : 1 h 39 min
Bit rate : 36 b/s
Count of elements : 869
Stream size : 26.9 KiB (0%)
Title : English
Language : English
Default : Yes
Forced : Yes

Menu
00:00:00.000 : en:00:00:00.000
00:08:55.452 : en:00:08:55.452
00:15:05.071 : en:00:15:05.071
00:23:29.783 : en:00:23:29.783
00:32:25.610 : en:00:32:25.610
00:43:20.306 : en:00:43:20.306
00:54:35.772 : en:00:54:35.772
01:04:53.223 : en:01:04:53.223
01:13:15.057 : en:01:13:15.057
01:19:40.067 : en:01:19:40.067
01:31:24.145 : en:01:31:24.145
01:39:20.288 : en:01:39:20.288


BDRip 1080p Screenshots

Vagabond / Sans toit ni loi (1985)

Vagabond / Sans toit ni loi (1985)

Vagabond / Sans toit ni loi (1985)

Vagabond / Sans toit ni loi (1985)


Come Visit My Blog (•‿•)