Subcategories

Valerian and the City of a Thousand Planets (2017) [3D]

Posted By: JohnSmith
Valerian and the City of a Thousand Planets (2017) [3D]

Valerian and the City of a Thousand Planets (2017)
3D HSBS | BDRip 1080p | MKV / AVC@15.5 Mb/s | 1920x1080 | 2h 16mn | 15.9 GB | English: DTS, 1509 kb/s (6 ch)
Genre: Action | Adventure | Fantasy | Sci-Fi

In the 28th century, Valerian and Laureline are a team of special operatives charged with maintaining order throughout the human territories. Under assignment from the Minister of Defense, the two embark on a mission to the city of Alpha-an ever-expanding metropolis where species from all over the universe have converged over centuries to share knowledge, intelligence and cultures with each other. There is a mystery at the center of Alpha, a dark force which threatens the peaceful existence of the City of a Thousand Planets, and Valerian and Laureline must race to identify the marauding menace and safeguard not just Alpha, but the future of the universe.




General
Unique ID : 236812511429531629647735612759797774928 (0xB2286E4224B4D742B66F6723DFD9BA50)
Complete name : A:\Valerian.and.the.City.of.a.Thousand.Planets.2017.1080p.3D.BluRay.Half-SBS-FGT.mkv
Format : Matroska
Format version : Version 4 / Version 2
File size : 15.9 GiB
Duration : 2 h 16 min
Overall bit rate : 16.7 Mb/s
Encoded date : UTC 2017-11-18 15:50:52
Writing application : mkvmerge v8.3.0 ('Over the Horizon') 64bit
Writing library : libebml v1.3.1 + libmatroska v1.4.2

Video
ID : 1
Format : AVC
Format/Info : Advanced Video Codec
Format profile : High@L4.1
Format settings, CABAC : Yes
Format settings, ReFrames : 3 frames
Codec ID : V_MPEG4/ISO/AVC
Duration : 2 h 16 min
Bit rate : 15.5 Mb/s
Width : 1 920 pixels
Height : 1 080 pixels
Display aspect ratio : 16:9
Frame rate mode : Constant
Frame rate : 23.976 (24000/1001) FPS
Color space : YUV
Chroma subsampling : 4:2:0
Bit depth : 8 bits
Scan type : Progressive
Bits/(Pixel*Frame) : 0.312
Stream size : 14.5 GiB (91%)
Writing library : x264 core 148
Encoding settings : cabac=1 / ref=3 / deblock=1:-1:-1 / analyse=0x3:0 / me=hex / subme=5 / psy=1 / psy_rd=1.00:0.00 / mixed_ref=0 / me_range=16 / chroma_me=1 / trellis=1 / 8x8dct=1 / cqm=0 / deadzone=21,11 / fast_pskip=0 / chroma_qp_offset=0 / threads=24 / lookahead_threads=6 / sliced_threads=0 / nr=0 / decimate=1 / interlaced=0 / bluray_compat=0 / constrained_intra=0 / bframes=2 / b_pyramid=0 / b_adapt=1 / b_bias=0 / direct=1 / weightb=0 / open_gop=0 / weightp=0 / keyint=24 / keyint_min=2 / scenecut=40 / intra_refresh=0 / rc=abr / mbtree=0 / bitrate=15500 / ratetol=1.0 / qcomp=0.60 / qpmin=0 / qpmax=69 / qpstep=4 / ip_ratio=1.40 / pb_ratio=1.30 / aq=1:1.00
Default : Yes
Forced : No
Color range : Limited
Color primaries : BT.709
Transfer characteristics : BT.709
Matrix coefficients : BT.709

Audio
ID : 2
Format : DTS
Format/Info : Digital Theater Systems
Mode : 16
Format settings, Endianness : Big
Codec ID : A_DTS
Duration : 2 h 16 min
Bit rate mode : Constant
Bit rate : 1 509 kb/s
Channel(s) : 6 channels
Channel positions : Front: L C R, Side: L R, LFE
Sampling rate : 48.0 kHz
Frame rate : 93.750 FPS (512 spf)
Bit depth : 24 bits
Compression mode : Lossy
Stream size : 1.44 GiB (9%)
Title : Valerian.and.the.City.of.a.Thousand.Planets.2017.1080p.3D.BluRay.Half-SBS.x264.DTS-HD.MA.5.1-FGT
Language : English
Default : No
Forced : No

Menu
00:00:00.000 : en:(01)00:00:00:000
00:17:30.924 : en:(02)00:17:30:924
00:34:12.341 : en:(03)00:34:12:341
00:51:16.698 : en:(04)00:51:16:698
01:07:59.742 : en:(05)01:07:59:742
01:26:10.331 : en:(06)01:26:10:331
01:40:22.725 : en:(07)01:40:22:725
01:58:47.870 : en:(08)01:58:47:870




Screenshots

Valerian and the City of a Thousand Planets (2017) [3D]

Valerian and the City of a Thousand Planets (2017) [3D]

Valerian and the City of a Thousand Planets (2017) [3D]