Tags
Language
Tags

Valerie a týden divu (1970)

Posted By: Tavaz
1080p (FullHD) / BDRip IMDb
Valerie a týden divu (1970)

Valerie a týden divu (1970)
BDRip | MKV | 1488x1080 | Čeština | H264 @ 13555 kbps | FLAC @ 656 kbps | 1 h 17 min | 7.65 GiB
Subtitles: English
Genre: Adventure, Drama, Fantasy, Horror

Surreal tale in which love, fear, sex and religion merge into one fantastic world, based on a classical Czech novel of the same title.,A thief awakens Valerie, just 13, taking earrings left to her by her mother. By morning, the earrings have been returned, Valerie's first period has begun, and a troupe and a missionary have arrived in her 19th century town. The thief is Orick; he reports to a cloaked constable who may also be the missionary. Attention to sexuality is everywhere: Valerie's grandmother's puritanical nature, the missionary's sermon to the town's virgins, the parish priest's attempt to seduce Valerie, and lusty adults at play. Valerie's nascent sexuality puts her in great danger. Can she navigate the passage from innocence to experience, a route teaming with vampires, a murderer, and an obscure family tree?::<jhailey@hotmail.com>

Valerie.and.Her.Week.of.Wonders.1970.1080p.BluRay.x264-SADPANDA.mkv (7.6 GB)



General
Unique ID : 190378859100097535717673879995518505355 (0x8F39A271FE8D3A0590FC81768E93518B)
Complete name : ./Valerie.and.Her.Week.of.Wonders.1970.1080p.BluRay.x264-SADPANDA.mkv
Format : Matroska
Format version : Version 4 / Version 2
File size : 7.65 GiB
Duration : 1 h 17 min
Overall bit rate mode : Variable
Overall bit rate : 14.2 Mb/s
Encoded date : UTC 2016-01-16 18:17:38
Writing application : mkvmerge v8.7.0 ('All of the above') 64bit
Writing library : libebml v1.3.3 + libmatroska v1.4.4

Video
ID : 1
Format : AVC
Format/Info : Advanced Video Codec
Format profile : High@L4.1
Format settings : CABAC / 5 Ref Frames
Format settings, CABAC : Yes
Format settings, RefFrames : 5 frames
Codec ID : V_MPEG4/ISO/AVC
Duration : 1 h 17 min
Bit rate : 13.6 Mb/s
Width : 1 488 pixels
Height : 1 080 pixels
Display aspect ratio : 1.378
Frame rate mode : Constant
Frame rate : 23.976 (24000/1001) FPS
Color space : YUV
Chroma subsampling : 4:2:0
Bit depth : 8 bits
Scan type : Progressive
Bits/(Pixel*Frame) : 0.352
Stream size : 7.29 GiB (95%)
Writing library : x264 core 148 r2638 7599210
Encoding settings : cabac=1 / ref=5 / deblock=1:-3:-3 / analyse=0x3:0x113 / me=umh / subme=8 / psy=1 / psy_rd=1.00:0.25 / mixed_ref=1 / me_range=24 / chroma_me=1 / trellis=1 / 8x8dct=1 / cqm=0 / deadzone=21,11 / fast_pskip=1 / chroma_qp_offset=-4 / threads=12 / lookahead_threads=2 / sliced_threads=0 / nr=0 / decimate=1 / interlaced=0 / bluray_compat=0 / constrained_intra=0 / bframes=3 / b_pyramid=2 / b_adapt=2 / b_bias=0 / direct=3 / weightb=1 / open_gop=0 / weightp=2 / keyint=240 / keyint_min=24 / scenecut=40 / intra_refresh=0 / rc_lookahead=50 / rc=2pass / mbtree=1 / bitrate=13555 / ratetol=1.0 / qcomp=0.60 / qpmin=0 / qpmax=69 / qpstep=4 / cplxblur=20.0 / qblur=0.5 / vbv_maxrate=62500 / vbv_bufsize=78125 / nal_hrd=none / filler=0 / ip_ratio=1.40 / aq=1:0.50
Default : Yes
Forced : No

Audio
ID : 2
Format : FLAC
Format/Info : Free Lossless Audio Codec
Codec ID : A_FLAC
Duration : 1 h 17 min
Bit rate mode : Variable
Bit rate : 657 kb/s
Channel(s) : 1 channel
Channel positions : Front: C
Sampling rate : 48.0 kHz
Frame rate : 11.719 FPS (4096 SPF)
Bit depth : 24 bits
Stream size : 362 MiB (5%)
Writing library : libFLAC 1.2.1 (UTC 2007-09-17)
Language : Czech
Default : Yes
Forced : No

Text
ID : 3
Format : UTF-8
Codec ID : S_TEXT/UTF8
Codec ID/Info : UTF-8 Plain Text
Duration : 1 h 16 min
Bit rate : 23 b/s
Count of elements : 520
Stream size : 13.0 KiB (0%)
Language : English
Default : Yes
Forced : No

Menu
00:00:00.000 : en:00:00:00.000
00:02:55.008 : en:00:02:55.008
00:07:15.852 : en:00:07:15.852
00:11:00.493 : en:00:11:00.493
00:16:58.100 : en:00:16:58.100
00:22:05.324 : en:00:22:05.324
00:26:04.021 : en:00:26:04.021
00:31:40.649 : en:00:31:40.649
00:34:46.876 : en:00:34:46.876
00:38:08.786 : en:00:38:08.786
00:41:38.621 : en:00:41:38.621
00:44:52.732 : en:00:44:52.732
00:46:10.226 : en:00:46:10.226
00:51:36.302 : en:00:51:36.302
00:54:36.440 : en:00:54:36.440
00:56:49.031 : en:00:56:49.031
00:59:50.378 : en:00:59:50.378
01:03:28.430 : en:01:03:28.430
01:09:39.592 : en:01:09:39.592
01:11:44.509 : en:01:11:44.509





Valerie a týden divu (1970)


Valerie a týden divu (1970)


Valerie a týden divu (1970)


Valerie a týden divu (1970)


Valerie a týden divu (1970)