Victor Crowley (2017)

Posted By: Tavaz
720p (HD) / BDRip IMDb
Victor Crowley (2017)

Victor Crowley (2017)
BDRip | MKV | 1280x534 | English / English / English | H264 @ 6688 kbps | AC-3 @ 640 kbps | 1 h 22 min | 4.38 GiB
Subtitles: English
Genre: Comedy, Horror

Ten years after the events of the original movie, Victor Crowley is mistakenly resurrected and proceeds to kill once more.

b3eadfe56dcf4e6eb5be7c92838d7b9c.mkv (4.4 GB)



General
Complete name : ./b3eadfe56dcf4e6eb5be7c92838d7b9c.mkv
Format : Matroska
Format version : Version 4 / Version 2
File size : 4.38 GiB
Duration : 1 h 22 min
Overall bit rate : 7 590 kb/s
Encoded date : UTC 2018-03-16 16:51:25
Writing application : mkvmerge v16.0.0 ('Protest') 32-bit
Writing library : libebml v1.3.5 + libmatroska v1.4.8

Video
ID : 1
Format : AVC
Format/Info : Advanced Video Codec
Format profile : High@L4.1
Format settings : CABAC / 12 Ref Frames
Format settings, CABAC : Yes
Format settings, RefFrames : 12 frames
Codec ID : V_MPEG4/ISO/AVC
Duration : 1 h 22 min
Bit rate : 6 689 kb/s
Width : 1 280 pixels
Height : 534 pixels
Display aspect ratio : 2.40:1
Frame rate mode : Constant
Frame rate : 23.976 (24000/1001) FPS
Color space : YUV
Chroma subsampling : 4:2:0
Bit depth : 8 bits
Scan type : Progressive
Bits/(Pixel*Frame) : 0.408
Stream size : 3.86 GiB (88%)
Writing library : x264 core 155 r2867+74 66b5600 t_mod_Custom_2 [8-bit@all X86_64]
Encoding settings : cabac=1 / ref=12 / deblock=1:-3:-3 / analyse=0x3:0x133 / me=umh / subme=10 / psy=1 / fade_compensate=0.00 / psy_rd=1.00:0.00 / mixed_ref=1 / me_range=32 / chroma_me=1 / trellis=2 / 8x8dct=1 / cqm=0 / deadzone=21,11 / fast_pskip=0 / chroma_qp_offset=-2 / threads=6 / lookahead_threads=1 / sliced_threads=0 / nr=0 / decimate=0 / interlaced=0 / bluray_compat=0 / constrained_intra=0 / fgo=0 / bframes=8 / b_pyramid=2 / b_adapt=2 / b_bias=0 / direct=3 / weightb=1 / open_gop=0 / weightp=2 / keyint=250 / keyint_min=23 / scenecut=40 / intra_refresh=0 / rc=crf / mbtree=0 / crf=16.8000 / qcomp=0.60 / qpmin=0:0:0 / qpmax=69:69:69 / qpstep=4 / ip_ratio=1.30 / pb_ratio=1.20 / aq=3:0.80 / aq-sensitivity=10.00 / aq-factor=1.00:1.00:1.00 / aq2=0 / aq3=0
Language : English
Default : Yes
Forced : No

Audio #1
ID : 2
Format : AC-3
Format/Info : Audio Coding 3
Format settings, Endianness : Big
Codec ID : A_AC3
Duration : 1 h 22 min
Bit rate mode : Constant
Bit rate : 640 kb/s
Channel(s) : 6 channels
Channel positions : Front: L C R, Side: L R, LFE
Sampling rate : 48.0 kHz
Frame rate : 31.250 FPS (1536 SPF)
Bit depth : 16 bits
Compression mode : Lossy
Stream size : 378 MiB (8%)
Language : English
Service kind : Complete Main
Default : Yes
Forced : No

Audio #2
ID : 3
Format : AAC
Format/Info : Advanced Audio Codec
Format profile : LC
Codec ID : A_AAC-2
Duration : 1 h 22 min
Bit rate : 128 kb/s
Channel(s) : 2 channels
Channel positions : Front: L R
Sampling rate : 48.0 kHz
Frame rate : 46.875 FPS (1024 SPF)
Compression mode : Lossy
Delay relative to video : 9 ms
Stream size : 75.8 MiB (2%)
Title : Commentary
Language : English
Default : No
Forced : No

Audio #3
ID : 4
Format : AAC
Format/Info : Advanced Audio Codec
Format profile : LC
Codec ID : A_AAC-2
Duration : 1 h 22 min
Bit rate : 129 kb/s
Channel(s) : 2 channels
Channel positions : Front: L R
Sampling rate : 48.0 kHz
Frame rate : 46.875 FPS (1024 SPF)
Compression mode : Lossy
Delay relative to video : 9 ms
Stream size : 76.3 MiB (2%)
Title : Tehnical Commenary
Language : English
Default : No
Forced : No

Text #1
ID : 5
Format : UTF-8
Codec ID : S_TEXT/UTF8
Codec ID/Info : UTF-8 Plain Text
Duration : 1 h 18 min
Bit rate : 79 b/s
Count of elements : 1552
Stream size : 45.5 KiB (0%)
Language : English
Default : No
Forced : No

Text #2
ID : 6
Format : UTF-8
Codec ID : S_TEXT/UTF8
Codec ID/Info : UTF-8 Plain Text
Duration : 1 h 18 min
Bit rate : 83 b/s
Count of elements : 1682
Stream size : 48.3 KiB (0%)
Title : SDH
Language : English
Default : No
Forced : No

Menu #1
00:00:00.000 : :00:00:00.000
00:06:13.748 : :00:06:13.748
00:11:02.287 : :00:11:02.287
00:14:42.298 : :00:14:42.298
00:20:16.257 : :00:20:16.257
00:24:33.514 : :00:24:33.514
00:28:50.270 : :00:28:50.270
00:33:29.007 : :00:33:29.007
00:36:50.667 : :00:36:50.667
00:39:40.336 : :00:39:40.336
00:43:52.547 : :00:43:52.547
00:45:42.657 : :00:45:42.657
00:49:46.275 : :00:49:46.275
00:54:22.551 : :00:54:22.551
00:57:56.973 : :00:57:56.973
01:01:40.238 : :01:01:40.238
01:04:43.296 : :01:04:43.296
01:06:58.389 : :01:06:58.389
01:09:10.438 : :01:09:10.438
01:12:13.955 : :01:12:13.955
01:14:20.956 : :01:14:20.956
01:16:28.584 : :01:16:28.584
01:18:52.144 : :01:18:52.144

Menu #2
00:00:00.054 : en:00:00:00.054 / en:00:00:00.054





Victor Crowley (2017)


Victor Crowley (2017)


Victor Crowley (2017)


Victor Crowley (2017)


Victor Crowley (2017)