Gemini Pictures - Victory by Design: Alfa Romeo (2003)

Posted By: Tutorial
Gemini Pictures - Victory by Design: Alfa Romeo (2003)

Gemini Pictures - Victory by Design: Alfa Romeo (2003)
DVDRip | 720 x 400 | .MKV/AVC @ 2190 Kbps | 1 h 16 min | 1.28 GB
Audio: English AC-3 192 Kbps, 2 channels | Subs: None
Genre: Documentary

Victory By Design is a landmark award winning documentary series, which profiles the most important examples of iconic motoring marques. Programmes cover Maserati, Alfa Romeo, Aston Martin, Porsche, Ferrari, Jaguar, Ford, Lotus, Corvette, and some of the most important grand prix cars ever built in Grand Prix Greats, all shot in international locations: driven and presented by race car expert Alain de Cadenet with the result that presenter de Cadenet has now probably driven more important race cars than anybody alive today.
The programmes are all action, with minimal archive and interviews, relying on action of the cars to tell the story. Individual cars are the most authentic of their type, rarely seen and often come from private collections and museums.
This episode of Victory by Design: Alfa Romeo show is a pure treat for the 'Alfisti'. Almost feature-length and featuring most of the milestone sports racers and Grand Prix cars that helped establish Alfa Romeo as one of the truly great marques in automobile history. This show will give the Alfa enthusiast a real chance to appreciate the beauty and power of the Alfa heritage and the marque's place in automobile history.
Alain de Cadenet, a true authority on Alfas, particularly the pre-WW2 cars of Vittorio Jano and Enzo Ferrari, drives and appraises many of the actual cars that won the great classic races which would help create the Alfa legend that's still with us today. If the action and Alfa history doesn't grab you, then the full-on Alfa sound will! Like others in the Victory by Design series, the Alfa show is a must for those who love the marque. Featuring the milestone cars that helped make Alfa such a charismatic name on the race tracks of the world, from the early cars, through to the present day.
The programmes were produced by Gemini Pictures and directed by feature film and documentary filmmaker Tony Maylam. In the US the series was consistent ratings winner on Speed Channel and attracted excellent viewer and critical feedback internationally on various Discovery Channels.

General
Unique ID : 96830376621442850241537723565532859770 (0x48D8DA28DF29779C1A78815A65554D7A)
Complete name : Victory.by.Design.Alfa.Romeo.mkv
Format : Matroska
Format version : Version 4 / Version 2
File size : 1.28 GiB
Duration : 1 h 16 min
Overall bit rate : 2 383 kb/s
Writing application : Lavf57.25.100
Writing library : Lavf57.25.100

Video
ID : 1
Format : AVC
Format/Info : Advanced Video Codec
Format profile : High@L3
Format settings, CABAC : Yes
Format settings, ReFrames : 4 frames
Codec ID : V_MPEG4/ISO/AVC
Duration : 1 h 16 min
Bit rate : 2 190 kb/s
Width : 720 pixels
Height : 400 pixels
Display aspect ratio : 16:9
Frame rate mode : Constant
Frame rate : 25.000 FPS
Color space : YUV
Chroma subsampling : 4:2:0
Bit depth : 8 bits
Scan type : Progressive
Bits/(Pixel*Frame) : 0.304
Stream size : 1.15 GiB (90%)
Writing library : x264 core 146 r2538 121396c
Encoding settings : cabac=1 / ref=3 / deblock=1:0:0 / analyse=0x3:0x133 / me=hex / subme=8 / psy=1 / psy_rd=1.00:0.00 / mixed_ref=1 / me_range=16 / chroma_me=1 / trellis=1 / 8x8dct=1 / cqm=0 / deadzone=21,11 / fast_pskip=1 / chroma_qp_offset=-2 / threads=12 / lookahead_threads=2 / sliced_threads=0 / nr=0 / decimate=1 / interlaced=0 / bluray_compat=0 / constrained_intra=0 / bframes=3 / b_pyramid=2 / b_adapt=2 / b_bias=0 / direct=1 / weightb=1 / open_gop=0 / weightp=2 / keyint=250 / keyint_min=25 / scenecut=40 / intra_refresh=0 / rc_lookahead=40 / rc=2pass / mbtree=1 / bitrate=2190 / ratetol=1.0 / qcomp=0.60 / qpmin=10 / qpmax=51 / qpstep=4 / cplxblur=20.0 / qblur=0.5 / ip_ratio=1.40 / aq=1:1.00
Default : Yes
Forced : No
DURATION : 01:16:35.711000000

Audio
ID : 2
Format : AC-3
Format/Info : Audio Coding 3
Format settings, Endianness : Big
Codec ID : A_AC3
Duration : 1 h 16 min
Bit rate mode : Constant
Bit rate : 192 kb/s
Channel(s) : 2 channels
Channel positions : Front: L R
Sampling rate : 48.0 kHz
Frame rate : 31.250 FPS (1536 spf)
Bit depth : 16 bits
Compression mode : Lossy
Delay relative to video : -48 ms
Stream size : 105 MiB (8%)
Service kind : Complete Main
Default : Yes
Forced : No
DURATION : 01:16:35.655000000
Screenshots

Gemini Pictures - Victory by Design: Alfa Romeo (2003)

Gemini Pictures - Victory by Design: Alfa Romeo (2003)

Gemini Pictures - Victory by Design: Alfa Romeo (2003)

Gemini Pictures - Victory by Design: Alfa Romeo (2003)

Welcome to my blog - daily update!

Gemini Pictures - Victory by Design: Alfa Romeo (2003)