Viral (2016)

Posted By: Tavaz
1080p (FullHD) / BDRip IMDb
Viral (2016)

Viral (2016)
WEB-DL | MKV | 1920x800 | German / English | H265 @ 1611 kbps | DTS @ 1509 kbps | 1 h 25 min | 2.77 GiB
Subtitles: German
Genre: Drama, Horror, Science Fiction

Emma und ihre Schwester Stacey sind zwei gewöhnliche Teenager, deren Leben sich von einen Tag auf den anderen drastisch verändert. Denn in ihrer Heimatstadt verbreitet sich eine mysteriöse Infektion, die es nötig macht, die Einwohner unter Quarantäne zu stellen. Während ihre Eltern auf der anderen Seite festsitzen, genießen die Mädchen zunächst die Freiheit zu Hause. Plötzlich können sie auf Partys gehen und so viel Fast Food essen, wie ihnen lieb ist. Doch als das Virus sogar Opfer unter den Leuten fordert, die ihnen nahestehen, verschanzen sich die Mädchen gemeinsam mit Emmas heimlichem Schwarm Evan in den eigenen vier Wänden. Abgeschottet von der restlichen Zivilisation, steht Emma allerdings bald vor einer besonders schweren Entscheidung…

SHHD-Viralx265.mkv (2.8 GB)
Was.die.VAVOO.BOX.alles.kann.erfaehrst.Du.in.diesem.Video.mp4 (99.9 MB)



General
Unique ID : 329524697106151115510999097551991780957 (0xF7E825EDA120FC59DCC40BEADC86B65D)
Complete name : ./Viral.2016.German.DL.DTS.1080p.BluRay.x265-SHOWEHD/SHHD-Viralx265.mkv
Format : Matroska
Format version : Version 4 / Version 2
File size : 2.77 GiB
Duration : 1 h 25 min
Overall bit rate : 4 637 kb/s
Encoded date : UTC 2018-03-08 09:58:41
Writing application : mkvmerge v19.0.0 ('Brave Captain') 64-bit
Writing library : libebml v1.3.5 + libmatroska v1.4.8

Video
ID : 1
Format : HEVC
Format/Info : High Efficiency Video Coding
Format profile : Main@L4@Main
Codec ID : V_MPEGH/ISO/HEVC
Duration : 1 h 25 min
Bit rate : 1 612 kb/s
Width : 1 920 pixels
Height : 800 pixels
Display aspect ratio : 2.40:1
Frame rate mode : Constant
Frame rate : 24.000 FPS
Color space : YUV
Chroma subsampling : 4:2:0
Bit depth : 8 bits
Bits/(Pixel*Frame) : 0.044
Stream size : 987 MiB (35%)
Writing library : x265 2.5+2-18fa144d453e:[Windows][GCC 7.1.0][64 bit] 8bit+10bit+12bit
Encoding settings : cpuid=1050111 / frame-threads=5 / numa-pools=16,16 / wpp / no-pmode / no-pme / no-psnr / no-ssim / log-level=2 / input-csp=1 / input-res=1920x800 / interlace=0 / total-frames=123250 / level-idc=0 / high-tier=1 / uhd-bd=0 / ref=4 / no-allow-non-conformance / no-repeat-headers / annexb / no-aud / no-hrd / info / hash=0 / no-temporal-layers / open-gop / min-keyint=24 / keyint=250 / bframes=4 / b-adapt=2 / b-pyramid / bframe-bias=0 / rc-lookahead=25 / lookahead-slices=4 / scenecut=40 / no-intra-refresh / ctu=64 / min-cu-size=8 / rect / no-amp / max-tu-size=32 / tu-inter-depth=1 / tu-intra-depth=1 / limit-tu=0 / rdoq-level=2 / dynamic-rd=0.00 / no-ssim-rd / signhide / no-tskip / nr-intra=0 / nr-inter=0 / no-constrained-intra / strong-intra-smoothing / max-merge=3 / limit-refs=3 / limit-modes / me=3 / subme=3 / merange=57 / temporal-mvp / weightp / no-weightb / no-analyze-src-pics / deblock=0:0 / sao / no-sao-non-deblock / rd=4 / no-early-skip / rskip / no-fast-intra / no-tskip-fast / no-cu-lossless / no-b-intra / rdpenalty=0 / psy-rd=2.00 / psy-rdoq=1.00 / no-rd-refine / analysis-reuse-mode=0 / no-lossless / cbqpoffs=0 / crqpoffs=0 / rc=crf / crf=20.0 / qcomp=0.60 / qpstep=4 / stats-write=0 / stats-read=0 / ipratio=1.40 / pbratio=1.30 / aq-mode=1 / aq-strength=1.00 / cutree / zone-count=0 / no-strict-cbr / qg-size=32 / no-rc-grain / qpmax=69 / qpmin=0 / no-const-vbv / sar=1 / overscan=0 / videoformat=5 / range=0 / colorprim=2 / transfer=2 / colormatrix=2 / chromaloc=0 / display-window=0 / max-cll=0,0 / min-luma=0 / max-luma=255 / log2-max-poc-lsb=8 / vui-timing-info / vui-hrd-info / slices=1 / opt-qp-pps / opt-ref-list-length-pps / no-multi-pass-opt-rps / scenecut-bias=0.05 / no-opt-cu-delta-qp / no-aq-motion / no-hdr / no-hdr-opt / no-dhdr10-opt / analysis-reuse-level=5 / scale-factor=0 / refine-intra=0 / refine-inter=0 / refine-mv=0 / no-limit-sao / ctu-info=0
Language : German
Default : Yes
Forced : No

Audio #1
ID : 2
Format : DTS
Format/Info : Digital Theater Systems
Mode : 16
Format settings, Endianness : Big
Codec ID : A_DTS
Duration : 1 h 25 min
Bit rate mode : Constant
Bit rate : 1 509 kb/s
Channel(s) : 6 channels
Channel positions : Front: L C R, Side: L R, LFE
Sampling rate : 48.0 kHz
Frame rate : 93.750 FPS (512 SPF)
Bit depth : 24 bits
Compression mode : Lossy
Stream size : 924 MiB (33%)
Language : German
Default : Yes
Forced : No

Audio #2
ID : 3
Format : DTS
Format/Info : Digital Theater Systems
Mode : 16
Format settings, Endianness : Big
Codec ID : A_DTS
Duration : 1 h 25 min
Bit rate mode : Constant
Bit rate : 1 509 kb/s
Channel(s) : 6 channels
Channel positions : Front: L C R, Side: L R, LFE
Sampling rate : 48.0 kHz
Frame rate : 93.750 FPS (512 SPF)
Bit depth : 24 bits
Compression mode : Lossy
Stream size : 924 MiB (33%)
Language : English
Default : No
Forced : No

Text #1
ID : 4
Format : UTF-8
Codec ID : S_TEXT/UTF8
Codec ID/Info : UTF-8 Plain Text
Duration : 1 h 13 min
Bit rate : 1 b/s
Count of elements : 22
Stream size : 884 Bytes (0%)
Title : German Forced
Language : German
Default : Yes
Forced : Yes

Text #2
ID : 5
Format : VobSub
Muxing mode : zlib
Codec ID : S_VOBSUB
Codec ID/Info : Picture based subtitle format used on DVDs
Duration : 1 h 20 min
Bit rate : 6 095 b/s
Count of elements : 696
Stream size : 3.53 MiB (0%)
Title : German Full
Language : German
Default : No
Forced : No

Menu
00:00:00.000 : de:Chapter 1
00:01:48.791 : de:Chapter 2
00:07:45.250 : de:Chapter 3
00:12:19.791 : de:Chapter 4
00:16:31.875 : de:Chapter 5
00:20:56.916 : de:Chapter 6
00:25:02.708 : de:Chapter 7
00:28:25.500 : de:Chapter 8
00:33:02.458 : de:Chapter 9
00:37:02.000 : de:Chapter 10
00:42:29.375 : de:Chapter 11
00:47:55.458 : de:Chapter 12
00:54:00.666 : de:Chapter 13
01:00:09.041 : de:Chapter 14
01:05:32.500 : de:Chapter 15
01:10:52.416 : de:Chapter 16
01:16:38.625 : de:Chapter 17
01:21:46.666 : de:Chapter 18





Viral (2016)


Viral (2016)


Viral (2016)


Viral (2016)


Viral (2016)