Tags
Language
Tags

Waiting for the Barbarians (2019)

Posted By:
720p (HD) / BDRip IMDb
Waiting for the Barbarians (2019)

Waiting for the Barbarians (2019)
BDRip | MKV | 1280x536 | English | H264 @ 5749 kbps | AC-3 @ 640 kbps | 1 h 53 min | 5.10 GiB
Subtitles: 中文, Français, English
Genre: Drama

At an isolated frontier outpost, a colonial magistrate suffers a crisis of conscience when an army colonel arrives looking to interrogate the locals about an impending uprising, using cruel tactics that horrify the magistrate.

a4a82d9e3107dde8f3085d7fc276a0e3.mkv (5.1 GB)



General
Complete name : ./a4a82d9e3107dde8f3085d7fc276a0e3.mkv
Format : Matroska
Format version : Version 4 / Version 2
File size : 5.10 GiB
Duration : 1 h 53 min
Overall bit rate : 6 426 kb/s
Encoded date : UTC 2020-09-04 09:30:49
Writing application : mkvmerge v8.3.0 ('Over the Horizon') 32bit
Writing library : libebml v1.3.1 + libmatroska v1.4.2

Video
ID : 1
Format : AVC
Format/Info : Advanced Video Codec
Format profile : High@L4.1
Format settings : CABAC / 12 Ref Frames
Format settings, CABAC : Yes
Format settings, RefFrames : 12 frames
Codec ID : V_MPEG4/ISO/AVC
Duration : 1 h 53 min
Bit rate : 5 749 kb/s
Width : 1 280 pixels
Height : 536 pixels
Display aspect ratio : 2.40:1
Frame rate mode : Constant
Frame rate : 23.976 (24000/1001) FPS
Color space : YUV
Chroma subsampling : 4:2:0
Bit depth : 8 bits
Scan type : Progressive
Bits/(Pixel*Frame) : 0.349
Stream size : 4.56 GiB (89%)
Writing library : x264 core 160 r3000 33f9e14
Encoding settings : cabac=1 / ref=12 / deblock=1:-3:-3 / analyse=0x3:0x133 / me=umh / subme=11 / psy=1 / psy_rd=1.05:0.00 / mixed_ref=1 / me_range=32 / chroma_me=1 / trellis=2 / 8x8dct=1 / cqm=0 / deadzone=21,11 / fast_pskip=0 / chroma_qp_offset=-2 / threads=12 / lookahead_threads=2 / sliced_threads=0 / nr=0 / decimate=0 / interlaced=0 / bluray_compat=0 / constrained_intra=0 / bframes=9 / b_pyramid=2 / b_adapt=2 / b_bias=0 / direct=3 / weightb=1 / open_gop=0 / weightp=2 / keyint=240 / keyint_min=23 / scenecut=40 / intra_refresh=0 / rc_lookahead=60 / rc=2pass / mbtree=0 / bitrate=5749 / ratetol=1.0 / qcomp=0.65 / qpmin=0 / qpmax=69 / qpstep=4 / cplxblur=20.0 / qblur=0.5 / vbv_maxrate=50000 / vbv_bufsize=62500 / nal_hrd=none / filler=0 / ip_ratio=1.40 / pb_ratio=1.30 / aq=3:0.80
Default : Yes
Forced : No
Color range : Limited
Color primaries : BT.709
Transfer characteristics : BT.709
Matrix coefficients : BT.709

Audio
ID : 2
Format : AC-3
Format/Info : Audio Coding 3
Format settings, Endianness : Big
Codec ID : A_AC3
Duration : 1 h 53 min
Bit rate mode : Constant
Bit rate : 640 kb/s
Channel(s) : 6 channels
Channel positions : Front: L C R, Side: L R, LFE
Sampling rate : 48.0 kHz
Frame rate : 31.250 FPS (1536 SPF)
Bit depth : 16 bits
Compression mode : Lossy
Stream size : 520 MiB (10%)
Language : English
Service kind : Complete Main
Default : Yes
Forced : No

Text #1
ID : 3
Format : UTF-8
Codec ID : S_TEXT/UTF8
Codec ID/Info : UTF-8 Plain Text
Duration : 1 h 52 min
Bit rate : 31 b/s
Count of elements : 1063
Stream size : 26.3 KiB (0%)
Title : SDH
Language : English
Default : No
Forced : No

Text #2
ID : 4
Format : UTF-8
Codec ID : S_TEXT/UTF8
Codec ID/Info : UTF-8 Plain Text
Duration : 1 h 2 min
Bit rate : 1 b/s
Count of elements : 31
Stream size : 753 Bytes (0%)
Language : English
Default : Yes
Forced : No

Text #3
ID : 5
Format : UTF-8
Codec ID : S_TEXT/UTF8
Codec ID/Info : UTF-8 Plain Text
Duration : 1 h 42 min
Bit rate : 30 b/s
Count of elements : 860
Stream size : 23.0 KiB (0%)
Language : English
Default : No
Forced : No

Text #4
ID : 6
Format : PGS
Muxing mode : zlib
Codec ID : S_HDMV/PGS
Codec ID/Info : Picture based subtitle format used on BDs/HD-DVDs
Duration : 1 h 49 min
Bit rate : 5 819 b/s
Count of elements : 1586
Stream size : 4.57 MiB (0%)
Language : French
Default : No
Forced : No

Text #5
ID : 7
Format : PGS
Muxing mode : zlib
Codec ID : S_HDMV/PGS
Codec ID/Info : Picture based subtitle format used on BDs/HD-DVDs
Duration : 1 h 49 min
Bit rate : 249 b/s
Count of elements : 72
Stream size : 200 KiB (0%)
Language : French
Default : No
Forced : No

Text #6
ID : 8
Format : PGS
Muxing mode : zlib
Codec ID : S_HDMV/PGS
Codec ID/Info : Picture based subtitle format used on BDs/HD-DVDs
Duration : 1 h 53 min
Bit rate : 5 605 b/s
Count of elements : 1539
Stream size : 4.55 MiB (0%)
Language : Chinese
Default : No
Forced : No

Text #7
ID : 9
Format : PGS
Muxing mode : zlib
Codec ID : S_HDMV/PGS
Codec ID/Info : Picture based subtitle format used on BDs/HD-DVDs
Duration : 1 h 53 min
Bit rate : 5 627 b/s
Count of elements : 1539
Stream size : 4.57 MiB (0%)
Language : Chinese
Default : No
Forced : No

Text #8
ID : 10
Format : PGS
Muxing mode : zlib
Codec ID : S_HDMV/PGS
Codec ID/Info : Picture based subtitle format used on BDs/HD-DVDs
Duration : 1 h 53 min
Bit rate : 10.8 kb/s
Count of elements : 1539
Stream size : 8.74 MiB (0%)
Language : Chinese
Default : No
Forced : No

Text #9
ID : 11
Format : PGS
Muxing mode : zlib
Codec ID : S_HDMV/PGS
Codec ID/Info : Picture based subtitle format used on BDs/HD-DVDs
Duration : 1 h 53 min
Bit rate : 10.8 kb/s
Count of elements : 1539
Stream size : 8.76 MiB (0%)
Language : Chinese
Default : No
Forced : No

Menu
00:00:00.000 : en:00:00:00.000
00:08:23.670 : en:00:08:23.670
00:17:46.440 : en:00:17:46.440
00:29:12.000 : en:00:29:12.000
00:38:37.440 : en:00:38:37.440
00:46:11.769 : en:00:46:11.769
00:57:13.221 : en:00:57:13.221
01:04:04.299 : en:01:04:04.299
01:13:22.982 : en:01:13:22.982
01:19:39.942 : en:01:19:39.942
01:30:58.620 : en:01:30:58.620
01:40:57.051 : en:01:40:57.051





Waiting for the Barbarians (2019)


Waiting for the Barbarians (2019)


Waiting for the Barbarians (2019)


Waiting for the Barbarians (2019)


Waiting for the Barbarians (2019)