Waiting for Lightning (2012)

Posted By: vivid23
Waiting for Lightning (2012)

Waiting for Lightning (2012)
Bluray-rip 720p | 1280x720 | MKV/x264 @ 4418 Kbps | 96mn | Audio: English AC3 448 kbps, 6 channels | Subs: None | 3.27 GB
Genre: Documentary

A documentary on pro skateboarder Danny Way's tough childhood and his contributions to the sport, including footage of his jump over the Great Wall of China.

More info

Video
ID : 1
Format : AVC
Format/Info : Advanced Video Codec
Format profile : High@L4.1
Format settings, CABAC : Yes
Format settings, ReFrames : 5 frames
Codec ID : V_MPEG4/ISO/AVC
Duration : 1h 36mn
Bit rate : 4 418 Kbps
Width : 1 280 pixels
Height : 720 pixels
Display aspect ratio : 16:9
Frame rate : 23.976 fps
Color space : YUV
Chroma subsampling : 4:2:0
Bit depth : 8 bits
Scan type : Progressive
Bits/(Pixel*Frame) : 0.200
Stream size : 2.90 GiB (89%)
Writing library : x264 core 129 r2245 bc13772
Encoding settings : cabac=1 / ref=5 / deblock=1:0:0 / analyse=0x3:0x133 / me=umh / subme=7 / psy=1 / psy_rd=1.00:0.00 / mixed_ref=1 / me_range=16 / chroma_me=1 / trellis=1 / 8x8dct=1 / cqm=0 / deadzone=21,11 / fast_pskip=0 / chroma_qp_offset=-2 / threads=18 / lookahead_threads=3 / sliced_threads=0 / nr=0 / decimate=1 / interlaced=0 / bluray_compat=0 / constrained_intra=0 / bframes=3 / b_pyramid=2 / b_adapt=1 / b_bias=0 / direct=1 / weightb=1 / open_gop=0 / weightp=2 / keyint=250 / keyint_min=23 / scenecut=40 / intra_refresh=0 / rc_lookahead=40 / rc=2pass / mbtree=1 / bitrate=4418 / ratetol=1.0 / qcomp=0.60 / qpmin=0 / qpmax=69 / qpstep=4 / cplxblur=20.0 / qblur=0.5 / ip_ratio=1.40 / aq=1:1.00
Language : English

Audio
ID : 2
Format : AC-3
Format/Info : Audio Coding 3
Mode extension : CM (complete main)
Codec ID : A_AC3
Duration : 1h 36mn
Bit rate mode : Constant
Bit rate : 448 Kbps
Channel(s) : 6 channels
Channel positions : Front: L C R, Side: L R, LFE
Sampling rate : 48.0 KHz
Bit depth : 16 bits
Compression mode : Lossy
Stream size : 309 MiB (9%)
Title : AC3
Language : English

Menu
00:00:00.000 : en:00:00:00.000
00:00:41.959 : en:00:00:41.959
00:05:46.054 : en:00:05:46.054
00:10:18.159 : en:00:10:18.159
00:19:05.853 : en:00:19:05.853
00:24:09.949 : en:00:24:09.949
00:34:50.130 : en:00:34:50.130
00:42:21.706 : en:00:42:21.706
00:46:49.181 : en:00:46:49.181
00:49:34.346 : en:00:49:34.346
00:54:23.677 : en:00:54:23.677
01:01:18.508 : en:01:01:18.508
01:06:35.825 : en:01:06:35.825
01:20:12.474 : en:01:20:12.474
01:26:05.494 : en:01:26:05.494
01:27:57.481 : en:01:27:57.481
01:31:43.748 : en:01:31:43.748


Waiting for Lightning (2012)

Waiting for Lightning (2012)


Feel free to contact me when links are dead