Warcraft (2016)

Posted By: Without
Warcraft (2016)

Warcraft (2016)
4K UHD Remux | MKV | 3840x2160 | HEVC@46.8 Mb/s | English Atmos / TrueHD@4834 kb/s Kbps (8 ch)
English AC3@640 Kbps (6 ch) | Subs: English, French, Spanish | 2 h 3 min | 45.1 GB
Genre: Action, Adventure, Fantasy

As an Orc horde invades the planet Azeroth using a magic portal, a few human heroes and dissenting Orcs must attempt to stop the true evil behind this war.

IMDB - 2 wins & 3 nominations.


General
Warcraft.2016.UHD.BluRay.2160p.TrueHD.Atmos.7.1.HEVC.REMUX-FraMeSToR\Warcraft.2016.UHD.BluRay.2160p.TrueHD.Atmos.7.1.HEVC.REMUX-FraMeSToR.mkv
Format : Matroska
Format version : Version 4 / Version 2
File size : 45.1 GiB
Duration : 2 h 3 min
Overall bit rate mode : Variable
Overall bit rate : 52.4 Mb/s
Movie name : Warcraft 4K
Encoded date : UTC 2017-11-15 05:46:28
Writing application : mkvmerge v17.0.0 ('Be Ur Friend') 64-bit
Writing library : libebml v1.3.5 + libmatroska v1.4.8

Video
ID : 1
Format : HEVC
Format/Info : High Efficiency Video Coding
Format profile : Main 10@L5.1@High
Codec ID : V_MPEGH/ISO/HEVC
Duration : 2 h 3 min
Bit rate : 46.8 Mb/s
Width : 3 840 pixels
Height : 2 160 pixels
Display aspect ratio : 16:9
Frame rate mode : Constant
Frame rate : 23.976 (24000/1001) FPS
Color space : YUV
Chroma subsampling : 4:2:0 (Type 2)
Bit depth : 10 bits
Bits/(Pixel*Frame) : 0.235
Stream size : 40.3 GiB (89%)
Default : Yes
Forced : No
Color range : Limited
Color primaries : BT.2020
Transfer characteristics : SMPTE ST 2084
Matrix coefficients : BT.2020 non-constant
Mastering display color primaries : R: x=0.680000 y=0.320000, G: x=0.265000 y=0.690000, B: x=0.150000 y=0.060000, White point: x=0.312700 y=0.329000
Mastering display luminance : min: 0.0000 cd/m2, max: 1000.0000 cd/m2

Audio #1
ID : 2
Format : Atmos / TrueHD
Codec ID : A_TRUEHD
Duration : 2 h 3 min
Bit rate mode : Variable
Bit rate : 4 834 kb/s
Maximum bit rate : 7 893 kb/s
Channel(s) : Object Based / 8 channels
Channel positions : Object Based / Front: L C R, Side: L R, Back: L R, LFE
Sampling rate : / 48.0 kHz
Frame rate : 1 200.000 FPS (40 spf)
Compression mode : Lossless
Stream size : 4.16 GiB (9%)
Title : TrueHD Atmos 7.1
Language : English
Default : Yes
Forced : No

Audio #2
ID : 3
Format : AC-3
Format/Info : Audio Coding 3
Mode extension : CM (complete main)
Format settings, Endianness : Big
Codec ID : A_AC3
Duration : 2 h 3 min
Bit rate mode : Constant
Bit rate : 640 kb/s
Channel(s) : 6 channels
Channel positions : Front: L C R, Side: L R, LFE
Sampling rate : 48.0 kHz
Frame rate : 31.250 FPS (1536 spf)
Bit depth : 16 bits
Compression mode : Lossy
Stream size : 564 MiB (1%)
Title : AC3 5.1
Language : English
Default : No
Forced : No

Text #1
ID : 4
Format : PGS
Codec ID : S_HDMV/PGS
Codec ID/Info : Picture based subtitle format used on BDs/HD-DVDs
Duration : 1 h 53 min
Bit rate : 29.4 kb/s
Count of elements : 2787
Stream size : 23.9 MiB (0%)
Title : English (SDH)
Language : English
Default : No
Forced : No

Text #2
ID : 5
Format : PGS
Codec ID : S_HDMV/PGS
Codec ID/Info : Picture based subtitle format used on BDs/HD-DVDs
Duration : 2 h 1 min
Bit rate : 22.8 kb/s
Count of elements : 2451
Stream size : 19.8 MiB (0%)
Title : Spanish (Latin American)
Language : Spanish
Default : No
Forced : No

Text #3
ID : 6
Format : PGS
Codec ID : S_HDMV/PGS
Codec ID/Info : Picture based subtitle format used on BDs/HD-DVDs
Duration : 2 h 1 min
Bit rate : 20.3 kb/s
Count of elements : 2459
Stream size : 17.7 MiB (0%)
Title : French
Language : French
Default : No
Forced : No

Menu
00:00:00.000 : en:Chapter 01
00:09:27.484 : en:Chapter 02
00:15:50.408 : en:Chapter 03
00:22:37.147 : en:Chapter 04
00:29:17.172 : en:Chapter 05
00:38:44.322 : en:Chapter 06
00:46:45.094 : en:Chapter 07
00:53:03.680 : en:Chapter 08
00:56:18.333 : en:Chapter 09
01:02:44.928 : en:Chapter 10
01:07:49.315 : en:Chapter 11
01:12:25.550 : en:Chapter 12
01:17:14.046 : en:Chapter 13
01:22:46.670 : en:Chapter 14
01:26:33.146 : en:Chapter 15
01:32:30.670 : en:Chapter 16
01:40:26.103 : en:Chapter 17
01:47:39.119 : en:Chapter 18
01:51:13.834 : en:Chapter 19
01:53:59.833 : en:Chapter 20


Screenshots

Warcraft (2016)

Warcraft (2016)

Warcraft (2016)

Warcraft (2016)

Warcraft (2016)

Warcraft (2016)


Come Visit My Blog (•‿•)