Tags
Language
Tags

What the Health (2017)

Posted By: Tutorial
SD / WEBRip IMDb
What the Health (2017)

What the Health (2017)
WEBRip | 720 x 400 | .AVI/XviD @ 1598 Kbps | 1h 32mn | 1.16 GB
Audio: English MP3 192 Kbps, 2 channels | Subs: English
Genre: Documentary, Health-Medical

An intrepid filmmaker on a journey of discovery as he uncovers possibly the largest health secret of our time and the collusion between industry, government, pharmaceutical and health organizations keeping this information from us.
What the Health is a ground breaking feature length documentary from the award-winning filmmakers of Cowspiracy, that follows the exciting journey of intrepid filmmaker, Kip Andersen, as he uncovers the impacts of highly processed industrial animal foods on our personal health and greater community, and explores why leading health organizations continue to promote the industry despite countless medical studies and research showing deleterious effects of these products on our health.

General
Complete name : What.the.Health.2017.avi
Format : AVI
Format/Info : Audio Video Interleave
Format profile : OpenDML
File size : 1.16 GiB
Duration : 1 h 32 min
Overall bit rate : 1 806 kb/s
Movie name : RARBG - What.the.Health.2017.WEBRip.XviD.MP3-XVID
Writing application : Lavf58.20.100
Comment : RARBG - What.the.Health.2017.WEBRip.XviD.MP3-XVID

Video
ID : 0
Format : MPEG-4 Visual
Format profile : Simple@L5
Format settings, BVOP : No
Format settings, QPel : No
Format settings, GMC : No warppoints
Format settings, Matrix : Default (H.263)
Codec ID : XVID
Codec ID/Hint : XviD
Duration : 1 h 32 min
Bit rate : 1 598 kb/s
Width : 720 pixels
Height : 308 pixels
Display aspect ratio : 2.35:1
Original display aspect ratio : 2.35:1
Frame rate : 23.976 (24000/1001) FPS
Color space : YUV
Chroma subsampling : 4:2:0
Bit depth : 8 bits
Scan type : Progressive
Compression mode : Lossy
Bits/(Pixel*Frame) : 0.301
Stream size : 1.03 GiB (88%)
Title : RARBG - What.the.Health.2017.WEBRip.XviD.MP3-XVID
Writing library : Lavc58.35.100

Audio
ID : 1
Format : MPEG Audio
Format version : Version 1
Format profile : Layer 3
Mode : Joint stereo
Mode extension : MS Stereo
Codec ID : 55
Codec ID/Hint : MP3
Duration : 1 h 32 min
Bit rate mode : Constant
Bit rate : 192 kb/s
Channel(s) : 2 channels
Sampling rate : 48.0 kHz
Compression mode : Lossy
Stream size : 126 MiB (11%)
Alignment : Aligned on interleaves
Interleave, duration : 24 ms (0.58 video frame)
Interleave, preload duration : 24 ms
Title : RARBG - What.the.Health.2017.WEBRip.XviD.MP3-XVID
Writing library : LAMEUUWяе/яэGыщkэЧМ5
Screenshots

What the Health (2017)

What the Health (2017)

What the Health (2017)

Welcome to my blog - daily update!

What the Health (2017)