Wheel of Time (2003)

Posted By: Polik88
Wheel of Time (2003)

Wheel of Time (2003)
DVDRip | English | AVI/DIVX 29.970 fps 1176 Kbps | 656x368 | AC3 384 Kbps 48.0 khz | 1h 20mn | 900 MB
Genre: Documentary

Wheel of Time is a 2003 documentary film by German director Werner Herzog about Tibetan Buddhism. The title refers to the Kalachakra sand mandala that provides a recurring image for the film. The film documents the two Kalachakra initiations of 2002, presided over by the fourteenth Dalai Lama. The first, in Bodhgaya India, was disrupted by the Dalai Lama's illness. Later that same year, the event was held again, this time without disruption, in Graz Austria. The film's first location is the Bodhgaya, the site of the Mahabodhi Temple and the Bodhi tree. Herzog then turns to the pilgrimage at Mount Kailash. The film then focuses on the second gathering in Graz. Herzog includes a personal interview with the Dalai Lama, as well as Tibetan former political prisoner Takna Jigme Zangpo, who served 37 years in a Chinese prison for his support of the International Tibet Independence Movement.
General
Complete name : Wheel of Time.avi
Format : AVI
Format/Info : Audio Video Interleave
File size : 900 MiB
Duration : 1h 20mn
Overall bit rate : 1 571 Kbps

Video
ID : 0
Format : MPEG-4 Visual
Format settings, BVOP : 1
Format settings, QPel : No
Format settings, GMC : No warppoints
Format settings, Matrix : Default (H.263)
Muxing mode : Packed bitstream
Codec ID : DX50
Codec ID/Hint : DivX 5
Duration : 1h 20mn
Bit rate : 1 176 Kbps
Width : 656 pixels
Height : 368 pixels
Display aspect ratio : 16:9
Frame rate : 29.970 fps
Color space : YUV
Chroma subsampling : 4:2:0
Bit depth : 8 bits
Scan type : Progressive
Compression mode : Lossy
Bits/(Pixel*Frame) : 0.163
Stream size : 674 MiB (75%)
Writing library : DivX 6.8.0 (UTC 2007-12-04)

Audio
ID : 1
Format : AC-3
Format/Info : Audio Coding 3
Mode extension : CM (complete main)
Format settings, Endianness : Big
Codec ID : 2000
Duration : 1h 20mn
Bit rate mode : Constant
Bit rate : 384 Kbps
Channel(s) : 2 channels
Channel positions : Front: L R
Sampling rate : 48.0 KHz
Bit depth : 16 bits
Compression mode : Lossy
Stream size : 220 MiB (24%)
Alignment : Split accross interleaves
Interleave, duration : 33 ms (1.00 video frame)
Interleave, preload duration : 500 ms

Screenshots

Wheel of Time (2003)

Wheel of Time (2003)

Wheel of Time (2003)

no mirrors please, Follow The Rules
Visit Polik88 Blog Here
no password