Tags
Language
Tags

Where the Wild Things Are (2009)

Posted By: Tavaz
1080p (FullHD) / BDRip IMDb
Where the Wild Things Are (2009)

Where the Wild Things Are (2009)
BDRip | MOV | 1920x792 | H264 @ 3729 kbps | AC-3 @ 448 kbps | 1 h 41 min | 2.95 GiB
Subtitles: English
Genre: Family, Fantasy, Science Fiction

Max imagines running away from his mom and sailing to a far-off land where large talking beasts – Ira, Carol, Douglas, the Bull, Judith and Alexander – crown him as their king, play rumpus, build forts and discover secret hideaways.

38a0125f935e5b7c43b337b3905bc506.mp4 (3.0 GB)



General
Complete name : ./38a0125f935e5b7c43b337b3905bc506.mp4
Format : MPEG-4
Format profile : Base Media / Version 2
Codec ID : mp42 (mp42/isom/avc1)
File size : 2.95 GiB
Duration : 1 h 41 min
Overall bit rate mode : Variable
Overall bit rate : 4 184 kb/s
Movie name : Where.The.Wild.Things.Are.2009.1080p.BluRay.H264.AC3.DD5.1.Will1869
Encoded date : UTC 2020-05-22 01:01:41
Tagged date : UTC 2020-05-22 01:10:19
Writing application : DVDFab 11.0.4.2
Cover : Yes

Video
ID : 1
Format : AVC
Format/Info : Advanced Video Codec
Format profile : Main@L4
Format settings : CABAC / 2 Ref Frames
Format settings, CABAC : Yes
Format settings, RefFrames : 2 frames
Format settings, GOP : M=1, N=24
Codec ID : avc1
Codec ID/Info : Advanced Video Coding
Duration : 1 h 41 min
Bit rate mode : Variable
Bit rate : 3 729 kb/s
Maximum bit rate : 5 820 kb/s
Width : 1 920 pixels
Height : 792 pixels
Display aspect ratio : 2.40:1
Frame rate mode : Constant
Frame rate : 23.976 (24000/1001) FPS
Color space : YUV
Chroma subsampling : 4:2:0
Bit depth : 8 bits
Scan type : Progressive
Bits/(Pixel*Frame) : 0.102
Stream size : 2.63 GiB (89%)
Encoded date : UTC 2020-05-22 01:01:41
Tagged date : UTC 2020-05-22 01:10:19
Color primaries : BT.709
Transfer characteristics : BT.709
Matrix coefficients : BT.709

Audio
ID : 2
Format : AC-3
Format/Info : Audio Coding 3
Format settings, Endianness : Big
Codec ID : ac-3
Duration : 1 h 41 min
Bit rate mode : Constant
Bit rate : 448 kb/s
Channel(s) : 6 channels
Channel positions : Front: L C R, Side: L R, LFE
Sampling rate : 48.0 kHz
Frame rate : 31.250 FPS (1536 SPF)
Bit depth : 16 bits
Compression mode : Lossy
Stream size : 324 MiB (11%)
Title : Undetermined (ac3 5.1)
Service kind : Complete Main
Default : Yes
Alternate group : 1
Encoded date : UTC 2020-05-22 01:01:41
Tagged date : UTC 2020-05-22 01:10:19

Text
ID : 3
Format : VobSub
Codec ID : mp4s-E0
Codec ID/Info : The same subtitle format used on DVDs
Duration : 1 h 28 min
Bit rate mode : Variable
Bit rate : 5 621 b/s
Maximum bit rate : 3 742 Mb/s
Stream size : 3.56 MiB (0%)
Language : English
Default : Yes
Forced : No
Alternate group : 2
Encoded date : UTC 2020-05-22 01:01:41
Tagged date : UTC 2020-05-22 01:09:22





Where the Wild Things Are (2009)


Where the Wild Things Are (2009)


Where the Wild Things Are (2009)


Where the Wild Things Are (2009)


Where the Wild Things Are (2009)