Whores' Glory (2011)

Posted By: Polik88
Whores' Glory (2011)

Whores' Glory (2011)
DVDRip | English | AVI/XVID 25.000 fps 723 Kbps | 672x368 | AC3 128 Kbps 48.0 khz | 1h 54mn | 703 MB
Genre: Documentary

Tells several stories of prostitution around the world. The documentary revolves around the lives and individual hopes, needs and experiences of the women.
General
Complete name : Whores.Glory.2011.avi
Format : AVI
Format/Info : Audio Video Interleave
File size : 703 MiB
Duration : 1h 54mn
Overall bit rate : 861 Kbps
Writing library : VirtualDubMod build 2550/release

Video
ID : 0
Format : MPEG-4 Visual
Format profile : Advanced Simple@L5
Format settings, BVOP : 1
Format settings, QPel : No
Format settings, GMC : No warppoints
Format settings, Matrix : Custom
Codec ID : XVID
Codec ID/Hint : XviD
Duration : 1h 54mn
Bit rate : 723 Kbps
Width : 672 pixels
Height : 368 pixels
Display aspect ratio : 1.85:1
Frame rate : 25.000 fps
Color space : YUV
Chroma subsampling : 4:2:0
Bit depth : 8 bits
Scan type : Progressive
Compression mode : Lossy
Bits/(Pixel*Frame) : 0.117
Stream size : 590 MiB (84%)
Writing library : XviD 1.2.1 (UTC 2008-12-04)

Audio
ID : 1
Format : AC-3
Format/Info : Audio Coding 3
Mode extension : CM (complete main)
Format settings, Endianness : Big
Codec ID : 2000
Duration : 1h 54mn
Bit rate mode : Constant
Bit rate : 128 Kbps
Channel(s) : 6 channels
Channel positions : Front: L C R, Side: L R, LFE
Sampling rate : 48.0 KHz
Bit depth : 16 bits
Compression mode : Lossy
Stream size : 104 MiB (15%)
Alignment : Split accross interleaves
Interleave, duration : 40 ms (1.00 video frame)
Interleave, preload duration : 500 ms

Screenshots

Whores' Glory (2011)

Whores' Glory (2011)

Whores' Glory (2011)

no mirrors please, Follow The Rules
Visit Polik88 Blog Here
no password