Tags
Language
Tags

Les Rescapés / Wilkolak (2018)

Posted By: JohnSmith
1080p (FullHD) / WEB-DL IMDb
Les Rescapés / Wilkolak (2018)

Les Rescapés / Wilkolak (2018)
WEB-DL 1080p | MKV / AVC@4450 kb/s | 1912x800 | 1h 24mn | Français (VFi): AAC, 126 kb/s (2 ch) | 2.70 GB
Genre: Drama | Horror

1945. La guerre vient de se terminer. Partout c'est le chaos. Un groupe d'adolescents libérés d'un camp de concentration s'installe en pleine forêt, dans un manoir abandonné. Ils ne connaissent que la violence et la peur. Le palais est envahi par des chiens-loups affamés. Les enfants sont obligés de s'unir pour se défendre.


General
Unique ID : 323231290182623859436957488175326810477 (0xF32C1502B5203EA2B5932B817F2DD16D)
Complete name : C:\Wilkolak.2018.FRENCH.1080p.WEB.mkv
Format : Matroska
Format version : Version 4
File size : 2.70 GiB
Duration : 1 h 24 min
Overall bit rate : 4 579 kb/s
Encoded date : UTC 2019-09-25 09:26:10
Writing application : mkvmerge v37.0.0 ('Leave It') 64-bit
Writing library : libebml v1.3.9 + libmatroska v1.5.2

Video
ID : 2
Format : AVC
Format/Info : Advanced Video Codec
Format profile : High@L4
Format settings : CABAC / 5 Ref Frames
Format settings, CABAC : Yes
Format settings, Reference : 5 frames
Codec ID : V_MPEG4/ISO/AVC
Duration : 1 h 24 min
Bit rate : 4 450 kb/s
Width : 1 912 pixels
Height : 800 pixels
Display aspect ratio : 2.40:1
Frame rate mode : Constant
Frame rate : 25.000 FPS
Color space : YUV
Chroma subsampling : 4:2:0
Bit depth : 8 bits
Scan type : Progressive
Bits/(Pixel*Frame) : 0.116
Stream size : 2.63 GiB (97%)
Language : English
Default : Yes
Forced : No
Color range : Limited
Color primaries : BT.709
Transfer characteristics : BT.709
Matrix coefficients : BT.709

Audio
ID : 1
Format : AAC LC
Format/Info : Advanced Audio Codec Low Complexity
Codec ID : A_AAC-2
Duration : 1 h 24 min
Bit rate : 126 kb/s
Channel(s) : 2 channels
Channel layout : L R
Sampling rate : 48.0 kHz
Frame rate : 46.875 FPS (1024 SPF)
Compression mode : Lossy
Delay relative to video : -40 ms
Stream size : 76.2 MiB (3%)
Language : French
Default : Yes
Forced : No

Menu
00:00:00.000 : en:Chapitre 1
00:10:44.040 : en:Chapitre 2
00:20:20.240 : en:Chapitre 3
00:30:57.760 : en:Chapitre 4
00:42:18.360 : en:Chapitre 5
00:49:46.600 : en:Chapitre 6
01:02:48.879 : en:Chapitre 7
01:12:00.958 : en:Chapitre 8




Screenshots

Les Rescapés / Wilkolak (2018)

Les Rescapés / Wilkolak (2018)

Les Rescapés / Wilkolak (2018)