Channel 5 - Worlds Greatest Bridges: Series 1 (2017)

Posted By: Tutorial
720p (HD) / HDTV
Channel 5 - Worlds Greatest Bridges: Series 1 (2017)

Channel 5 - Worlds Greatest Bridges: Series 1 (2017)
HDTV | 1280 x 720 | .MP4/AVC @ 2663 Kbps | 6x~43mn | 5.26 GB
Audio: English AAC 160 Kbps, 2 channels | Subs: None
Genre: Documentary

Documentary series presented by engineer Rob Bell, exploring the history and construction of the world's most iconic bridges.

Part 1: Golden Gate Bridge
Rob visits San Francisco's Golden Gate Bridge and meets the people who keep it operational, as well as discovering the fascinating history of a bridge that many claimed was impossible to build.


Part 2: Sydney Harbour Bridge
Known locally as 'the Coathanger', Sydney Harbour Bridge is the world's tallest and widest steel arched bridge. Connecting the northern suburbs with the city centre, it brought together a city divided not just by water but by cultural differences. Rob explores the story of this engineering masterpiece, whose builders utilised the very latest technologies and techniques of their time, but which came at a cost.


Part 3: The Iron Bridge Shropshire
A symbol of the Industrial Revolution, the elegant Iron Bridge over the river Severn in rural Shropshire was the world's first bridge to be constructed entirely from iron. Rob reveals the difficulties encountered in building it, the scepticism of contemporary engineers, how it inspired Thomas Telford to design the Pontcysyllte Aqueduct and the bridge's role as a catalyst for the birth of a civil engineering.


Part 4: The Brooklyn Bridge
Rob Bell explores the history and construction of the world's most iconic bridges. Spanning New York's East River, the Brooklyn Bridge connecting Brooklyn and Manhattan was the world's longest suspension bridge when opened in 1883. Rob Bell tells the story of its construction - a classic New York tale of big money, corruption, ambition, death and tragedy. It is also the saga of two men and one woman - father, son and the son's wife - who realised a dream against all the odds.


Part 5: The Millau Viaduct
Rob Bell explores the story and construction of the world's most iconic bridges. The Millau Viaduct over the Tarn gorge in southern France is the world's tallest bridge and considered by many to be the world's most beautiful. Rob meets the design team, including architect Lord Norman Foster and structural engineer Dr Michel Virlogeux, and learns about the innovative and ancient techniques used to build it. London's Millennium Bridge, Lord Foster's other project at the time, is also featured, including what caused the wobble and how it was rectified.


Part 6: The Severn Bridge
Rob Bell explores the history and construction of the world's iconic bridges. Opened in 1966, the Severn Bridge was the first road bridge to connect England and South Wales by spanning the vast Severn estuary. Rob reveals why its design by Dr Bill Brown revolutionised the way that modern suspension bridges are built. He also surfs the Severn Bore and meets the construction workers who braved the wave and tidal ranges of up to 50 feet in order to build it.


General
Complete name : Worlds.Greatest.Bridges.Series.1.1of6.Golden.Gate.Bridge.mp4
Format : MPEG-4
Format profile : Base Media
Codec ID : isom (isom/iso2/avc1/mp41)
File size : 883 MiB
Duration : 43 min 39 s
Overall bit rate mode : Variable
Overall bit rate : 2 828 kb/s
Movie name : Worlds Greatest Bridges S01E06 The Severn
Encoded date : UTC 2017-12-02 18:34:39
Tagged date : UTC 2017-12-02 18:34:39
Writing application : Lavf51.12.1

Video
ID : 1
Format : AVC
Format/Info : Advanced Video Codec
Format profile : High@L4.1
Format settings, CABAC : No
Format settings, ReFrames : 2 frames
Format settings, GOP : M=1, N=12
Codec ID : avc1
Codec ID/Info : Advanced Video Coding
Duration : 43 min 39 s
Bit rate : 2 663 kb/s
Width : 1 280 pixels
Height : 720 pixels
Display aspect ratio : 16:9
Frame rate mode : Constant
Frame rate : 25.000 FPS
Color space : YUV
Chroma subsampling : 4:2:0
Bit depth : 8 bits
Scan type : Progressive
Bits/(Pixel*Frame) : 0.116
Stream size : 832 MiB (94%)
Language : English
Encoded date : UTC 2017-12-02 18:34:39
Tagged date : UTC 2017-12-02 18:34:39

Audio
ID : 2
Format : AAC
Format/Info : Advanced Audio Codec
Format profile : LC
Codec ID : 40
Duration : 43 min 39 s
Bit rate mode : Variable
Bit rate : 160 kb/s
Channel(s) : 2 channels
Channel positions : Front: L R
Sampling rate : 48.0 kHz
Frame rate : 46.875 FPS (1024 spf)
Compression mode : Lossy
Stream size : 50.0 MiB (6%)
Language : English
Encoded date : UTC 2017-12-02 18:34:39
Tagged date : UTC 2017-12-02 18:34:39
Screenshots

Channel 5 - Worlds Greatest Bridges: Series 1 (2017)

Channel 5 - Worlds Greatest Bridges: Series 1 (2017)

Channel 5 - Worlds Greatest Bridges: Series 1 (2017)

Welcome to my blog - daily update!

Channel 5 - Worlds Greatest Bridges: Series 1 (2017)