Tags
Language
Tags

X-Men Origins: Wolverine (2009)

Posted By: Tavaz
1080p (FullHD) / BDRip IMDb
X-Men Origins: Wolverine (2009)

X-Men Origins: Wolverine (2009)
BDRip | MKV | 1920x820 | English | H265 @ 2164 kbps | AC-3 @ 448 kbps | 1 h 47 min | 1.96 GiB
Subtitles: English
Genre: Action, Adventure, Sci-Fi

After seeking to live a normal life, Logan sets out to avenge the death of his girlfriend by undergoing the mutant Weapon X program and becoming Wolverine.

e06c6d830583437c967ebe1a205562a1.mkv (2.0 GB)



General
Complete name : ./e06c6d830583437c967ebe1a205562a1.mkv
Format : Matroska
Format version : Version 2
File size : 1.96 GiB
Duration : 1 h 47 min
Overall bit rate : 2 620 kb/s
Encoded date : UTC 2018-01-09 02:00:51
Writing application : DVDFab 10.0.6.6
Writing library : libebml v1.3.4 + libmatroska v1.4.5

Video
ID : 1
Format : HEVC
Format/Info : High Efficiency Video Coding
Format profile : Main 10@L4@High
Codec ID : V_MPEGH/ISO/HEVC
Duration : 1 h 47 min
Bit rate : 2 165 kb/s
Width : 1 920 pixels
Height : 820 pixels
Display aspect ratio : 2.35:1
Frame rate mode : Constant
Frame rate : 23.976 (24000/1001) FPS
Color space : YUV
Chroma subsampling : 4:2:0
Bit depth : 10 bits
Bits/(Pixel*Frame) : 0.057
Stream size : 1.62 GiB (83%)
Default : Yes
Forced : No
Color range : Limited
Color primaries : BT.709
Transfer characteristics : BT.709
Matrix coefficients : BT.709

Audio
ID : 2
Format : AC-3
Format/Info : Audio Coding 3
Format settings, Endianness : Big
Codec ID : A_AC3
Duration : 1 h 47 min
Bit rate mode : Constant
Bit rate : 448 kb/s
Channel(s) : 6 channels
Channel positions : Front: L C R, Side: L R, LFE
Sampling rate : 48.0 kHz
Frame rate : 31.250 FPS (1536 SPF)
Bit depth : 16 bits
Compression mode : Lossy
Stream size : 344 MiB (17%)
Language : English
Service kind : Complete Main
Default : Yes
Forced : No

Text
ID : 3
Format : VobSub
Codec ID : S_VOBSUB
Codec ID/Info : Picture based subtitle format used on DVDs
Duration : 1 h 40 min
Bit rate : 5 985 b/s
Count of elements : 842
Stream size : 4.30 MiB (0%)
Language : English
Default : No
Forced : No

Menu
00:00:00.000 : en:(01)00:00:00:000
00:03:21.201 : en:(02)00:03:21:201
00:07:49.010 : en:(03)00:07:49:010
00:10:28.419 : en:(04)00:10:28:419
00:14:09.807 : en:(05)00:14:09:807
00:17:50.110 : en:(06)00:17:50:110
00:19:31.503 : en:(07)00:19:31:503
00:25:55.136 : en:(08)00:25:55:136
00:28:17.987 : en:(09)00:28:17:987
00:32:28.571 : en:(10)00:32:28:571
00:37:51.310 : en:(11)00:37:51:310
00:45:03.367 : en:(12)00:45:03:367
00:49:43.647 : en:(13)00:49:43:647
00:56:28.468 : en:(14)00:56:28:468
00:59:41.828 : en:(15)00:59:41:828
01:02:17.650 : en:(16)01:02:17:650
01:06:12.176 : en:(17)01:06:12:176
01:09:54.523 : en:(18)01:09:54:523
01:12:54.703 : en:(19)01:12:54:703
01:16:19.741 : en:(20)01:16:19:741
01:21:29.467 : en:(21)01:21:29:467
01:25:57.777 : en:(22)01:25:57:777
01:28:55.121 : en:(23)01:28:55:121
01:32:06.812 : en:(24)01:32:06:812
01:33:37.069 : en:(25)01:33:37:069
01:37:15.538 : en:(26)01:37:15:538
01:40:22.141 : en:(27)01:40:22:141
01:41:26.121 : en:(28)01:41:26:121
01:47:21.143 : en:(29)01:47:21:143





X-Men Origins: Wolverine (2009)


X-Men Origins: Wolverine (2009)


X-Men Origins: Wolverine (2009)


X-Men Origins: Wolverine (2009)


X-Men Origins: Wolverine (2009)