Tags
Language
Tags

X: The Man with the X-Ray Eyes (1963)

Posted By:
1080p (FullHD) / BDRip IMDb
X: The Man with the X-Ray Eyes (1963)

X: The Man with the X-Ray Eyes (1963)
BDRip | MKV | 1920x1040 | English | H264 @ 9557 kbps | FLAC @ 234 kbps | 1 h 19 min | 5.51 GiB
Subtitles: English
Genre: Horror, Science Fiction, Thriller

The story concerns Dr James Xavier, ably portrayed by Ray Milland. He has invented a serum for improving human vision. When his funding is cut he proceeds to experiment on himself – with horrifying results.

2343524fcedb50b8bfb33d5e8b59f279.mkv (5.5 GB)



General
Unique ID : 68776027855271628861508510617627730472 (0x33BDC7F9766FAE1EF061E4938B0B2228)
Complete name : ./2343524fcedb50b8bfb33d5e8b59f279.mkv
Format : Matroska
Format version : Version 4 / Version 2
File size : 5.51 GiB
Duration : 1 h 19 min
Overall bit rate mode : Variable
Overall bit rate : 9 955 kb/s
Movie name : X - The Man With The X-Ray Eyes [1963] 1080p BluRay - HJ
Encoded date : UTC 2020-09-07 19:36:41
Writing application : mkvmerge v48.0.0 ('Fortress Around Your Heart') 64-bit
Writing library : libebml v1.4.0 + libmatroska v1.6.0

Video
ID : 1
Format : AVC
Format/Info : Advanced Video Codec
Format profile : High@L4.1
Format settings : CABAC / 4 Ref Frames
Format settings, CABAC : Yes
Format settings, RefFrames : 4 frames
Codec ID : V_MPEG4/ISO/AVC
Duration : 1 h 19 min
Bit rate : 9 558 kb/s
Width : 1 920 pixels
Height : 1 040 pixels
Display aspect ratio : 1.85:1
Frame rate mode : Constant
Frame rate : 23.976 (24000/1001) FPS
Color space : YUV
Chroma subsampling : 4:2:0
Bit depth : 8 bits
Scan type : Progressive
Bits/(Pixel*Frame) : 0.200
Stream size : 5.29 GiB (96%)
Writing library : x264 core 157 r2935 545de2f
Encoding settings : cabac=1 / ref=4 / deblock=1:-3:-3 / analyse=0x3:0x133 / me=umh / subme=10 / psy=1 / psy_rd=1.00:0.00 / mixed_ref=1 / me_range=32 / chroma_me=1 / trellis=2 / 8x8dct=1 / cqm=0 / deadzone=21,11 / fast_pskip=0 / chroma_qp_offset=-2 / threads=18 / lookahead_threads=4 / sliced_threads=0 / nr=0 / decimate=0 / interlaced=0 / bluray_compat=0 / constrained_intra=0 / bframes=16 / b_pyramid=2 / b_adapt=2 / b_bias=0 / direct=3 / weightb=1 / open_gop=0 / weightp=1 / keyint=240 / keyint_min=24 / scenecut=40 / intra_refresh=0 / rc_lookahead=60 / rc=crf / mbtree=0 / crf=24.0 / qcomp=0.60 / qpmin=0 / qpmax=69 / qpstep=4 / vbv_maxrate=62500 / vbv_bufsize=78125 / crf_max=0.0 / nal_hrd=none / filler=0 / ip_ratio=1.40 / pb_ratio=1.30 / aq=2:1.00
Default : Yes
Forced : No
Color range : Limited
Color primaries : BT.709
Transfer characteristics : BT.709
Matrix coefficients : BT.709

Audio #1
ID : 2
Format : FLAC
Format/Info : Free Lossless Audio Codec
Codec ID : A_FLAC
Duration : 1 h 19 min
Bit rate mode : Variable
Bit rate : 235 kb/s
Channel(s) : 1 channel
Sampling rate : 48.0 kHz
Frame rate : 11.719 FPS (4096 SPF)
Bit depth : 16 bits
Stream size : 133 MiB (2%)
Writing library : libFLAC 1.2.1 (UTC 2007-09-17)
Language : English
Default : Yes
Forced : No

Audio #2
ID : 3
Format : AAC
Format/Info : Advanced Audio Codec
Format profile : HE-AAC / LC
Format settings : Explicit
Codec ID : A_AAC-2
Duration : 1 h 19 min
Bit rate : 80.0 kb/s
Channel(s) : 2 channels
Channel positions : Front: L R
Sampling rate : 48.0 kHz / 24.0 kHz
Frame rate : 23.438 FPS (1024 SPF)
Compression mode : Lossy
Delay relative to video : 31 ms
Stream size : 45.3 MiB (1%)
Title : Commentary by Roger Corman
Language : English
Default : No
Forced : No

Audio #3
ID : 4
Format : AAC
Format/Info : Advanced Audio Codec
Format profile : HE-AAC / LC
Format settings : Explicit
Codec ID : A_AAC-2
Duration : 1 h 19 min
Bit rate : 80.0 kb/s
Channel(s) : 2 channels
Channel positions : Front: L R
Sampling rate : 48.0 kHz / 24.0 kHz
Frame rate : 23.438 FPS (1024 SPF)
Compression mode : Lossy
Delay relative to video : 31 ms
Stream size : 45.3 MiB (1%)
Title : Commentary by Tim Lucas
Language : English
Default : No
Forced : No

Text
ID : 5
Format : UTF-8
Codec ID : S_TEXT/UTF8
Codec ID/Info : UTF-8 Plain Text
Duration : 1 h 13 min
Bit rate : 51 b/s
Count of elements : 898
Stream size : 28.0 KiB (0%)
Language : English
Default : No
Forced : No

Menu
00:00:00.000 : :Eye Tests
00:09:25.106 : :Demonstration
00:15:53.828 : :Wrong Diagnosis
00:22:23.884 : :The Naked Eye
00:26:29.963 : :Smooth Operator
00:35:18.450 : :Freak Show
00:41:05.588 : :Just A Man
00:46:29.078 : :Healer
00:53:11.021 : :Surprise Visit
00:58:53.572 : :Beating The Odds
01:06:39.954 : :Chopper Chase
01:10:20.258 : :Stuck It Out





X: The Man with the X-Ray Eyes (1963)


X: The Man with the X-Ray Eyes (1963)


X: The Man with the X-Ray Eyes (1963)


X: The Man with the X-Ray Eyes (1963)


X: The Man with the X-Ray Eyes (1963)