XTC: This Is Pop (2017)

Posted By: JohnSmith
1080p (FullHD) / WEB-DL IMDb
XTC: This Is Pop (2017)

XTC: This Is Pop (2017)
WEB-DL 1080p | MKV / AVC@15 Mb/s | 1920x1080 | 1h 13mn | 4.66 GB
English: AC3, 224 kb/s (2 ch) | Subtitles: English
Genre: Music

A brand new film on one of Britain's best-loved and most influential bands of modern times, XTC. Emerging from the late 1970s punk and new wave explosion, XTC amassed a devoted following with hit singles Making Plans For Nigel, Sgt. Rock (Is Going To Help Me), Senses Working Overtime, Dear God and Mayor Of Simpleton. A colourful and vibrant journey into the world of XTC and their alter-ego band, The Dukes Of Stratosphear, the film includes newly filmed interviews with Andy Partridge, Colin Moulding, Dave Gregory and Terry Chambers. Through a mixture of animation, archive and specially-shot sequences, the film opens up the world of XTC and into the brilliant minds of principle songwriters, Messrs Partridge and Moulding.




General
Unique ID : 243966355070159617864981656300219001568 (0xB78A35FB441014EC8E1BC36FEA33EAE0)
Complete name : D:\Downloads\XTC.This.is.Pop.2017.1080p.AMZN.WEB-DL.DDP2.0.H.264-monkee.mkv
Format : Matroska
Format version : Version 4 / Version 2
File size : 4.66 GiB
Duration : 1 h 13 min
Overall bit rate mode : Variable
Overall bit rate : 9 076 kb/s
Encoded date : UTC 2018-01-12 03:00:26
Writing application : mkvmerge v13.0.0 ('The Juggler') 64bit
Writing library : libebml v1.3.4 + libmatroska v1.4.5

Video
ID : 1
Format : AVC
Format/Info : Advanced Video Codec
Format profile : High@L4
Format settings, CABAC : Yes
Format settings, ReFrames : 4 frames
Codec ID : V_MPEG4/ISO/AVC
Duration : 1 h 13 min
Bit rate mode : Variable
Bit rate : 8 850 kb/s
Maximum bit rate : 15.0 Mb/s
Width : 1 920 pixels
Height : 1 080 pixels
Display aspect ratio : 16:9
Frame rate mode : Constant
Frame rate : 23.976 (24000/1001) FPS
Color space : YUV
Chroma subsampling : 4:2:0
Bit depth : 8 bits
Scan type : Progressive
Bits/(Pixel*Frame) : 0.178
Stream size : 4.54 GiB (98%)
Default : Yes
Forced : No
Color range : Limited
Color primaries : BT.709
Transfer characteristics : BT.709
Matrix coefficients : BT.709

Audio
ID : 2
Format : E-AC-3
Format/Info : Enhanced Audio Coding 3
Format settings, Endianness : Big
Codec ID : A_EAC3
Duration : 1 h 13 min
Bit rate mode : Constant
Bit rate : 224 kb/s
Channel(s) : 2 channels
Channel positions : Front: L R
Sampling rate : 48.0 kHz
Frame rate : 187.500 FPS (256 spf)
Compression mode : Lossy
Stream size : 118 MiB (2%)
Language : English
Service kind : Complete Main
Default : Yes
Forced : No

Text #1
ID : 3
Format : UTF-8
Codec ID : S_TEXT/UTF8
Codec ID/Info : UTF-8 Plain Text
Duration : 1 h 13 min
Bit rate : 105 b/s
Count of elements : 1504
Stream size : 56.5 KiB (0%)
Language : English
Default : No
Forced : No

Text #2
ID : 4
Format : UTF-8
Codec ID : S_TEXT/UTF8
Codec ID/Info : UTF-8 Plain Text
Duration : 1 h 13 min
Bit rate : 107 b/s
Count of elements : 1529
Stream size : 57.8 KiB (0%)
Title : SDH
Language : English
Default : No
Forced : No




Screenshots

XTC: This Is Pop (2017)

XTC: This Is Pop (2017)

XTC: This Is Pop (2017)