Xiao cheng zhi chun / Spring in a Small Town (1948)

Posted By: RSU75
SD / DVDRip IMDb
Xiao cheng zhi chun / Spring in a Small Town (1948)

Xiao cheng zhi chun / Spring in a Small Town / Весна в маленьком городе (1948)
DVDRip | MKV | AVC 704x480, ~ 1.7 Mbps | 1hr 33mn | 1.41 GB
Chinese: AC3, 2 ch, 224 kbps
Subtitles: English, Russian
Genre: Drama, Romance
IMDB Rating: 7.6/10 (1.856 votes)


Director: Mu Fei
Writers: Tianji Li
Stars: Chaoming Cui, Wei Li, Yu Shi

Following WWII and with China brought to it's knees by the actions of the Japanese, prior to the rise of the Communists, led by Chairman Mao. This is the time during which Fei Mu's film takes place. Wei Wei plays a woman who lives a lonely life, shackled by her care for her gentle, but ill husband (Shi Yu)- that is until her first love reappears into her life. This is Fei's penultimate film as director, but is still enjoyed by many today as one of his best works. It has now been a firm favorite of many since it was restored in the 80's by the China Film Archive and some rate it as one of the greatest Chinese movies in history.




General
Unique ID : 200584260217032139211552561505038640028 (0x96E71F9168048B76B8E6EED380AE239C)
Complete name : l:\XiaoChengZhiChun.48.Dr\XiaoChengZhiChun.48.Dr.mkv
Format : Matroska
Format version : Version 4 / Version 2
File size : 1.41 GiB
Duration : 1 h 33 min
Overall bit rate : 2 159 kb/s
Movie name : Release RSU75
Encoded date : UTC 2017-12-05 04:13:56
Writing application : mkvmerge v6.6.0 ('The Edge Of The In Between') built on Dec 1 2013 17:55:00
Writing library : libebml v1.3.0 + libmatroska v1.4.1

Video
ID : 1
Format : AVC
Format/Info : Advanced Video Codec
Format profile : High@L3
Format settings : CABAC / 4 Ref Frames
Format settings, CABAC : Yes
Format settings, RefFrames : 4 frames
Codec ID : V_MPEG4/ISO/AVC
Duration : 1 h 33 min
Bit rate : 1 700 kb/s
Width : 704 pixels
Height : 480 pixels
Display aspect ratio : 4:3
Frame rate mode : Constant
Frame rate : 25.000 FPS
Color space : YUV
Chroma subsampling : 4:2:0
Bit depth : 8 bits
Scan type : Progressive
Bits/(Pixel*Frame) : 0.201
Stream size : 1.09 GiB (77%)
Writing library : x264 core 144 r2533 c8a773e
Encoding settings : cabac=1 / ref=4 / deblock=1:0:0 / analyse=0x3:0x113 / me=umh / subme=8 / psy=1 / psy_rd=1.00:0.00 / mixed_ref=1 / me_range=24 / chroma_me=1 / trellis=1 / 8x8dct=1 / cqm=0 / deadzone=21,11 / fast_pskip=1 / chroma_qp_offset=-2 / threads=3 / lookahead_threads=1 / sliced_threads=0 / nr=0 / decimate=1 / interlaced=0 / bluray_compat=0 / constrained_intra=0 / bframes=3 / b_pyramid=0 / b_adapt=2 / b_bias=0 / direct=3 / weightb=1 / open_gop=0 / weightp=2 / keyint=250 / keyint_min=25 / scenecut=40 / intra_refresh=0 / rc_lookahead=40 / rc=abr / mbtree=1 / bitrate=1700 / ratetol=1.0 / qcomp=0.60 / qpmin=10 / qpmax=51 / qpstep=4 / ip_ratio=1.41 / aq=1:1.00
Language : English
Default : Yes
Forced : No

Audio #1
ID : 2
Format : AC-3
Format/Info : Audio Coding 3
Format settings, Endianness : Big
Codec ID : A_AC3
Duration : 1 h 33 min
Bit rate mode : Constant
Bit rate : 224 kb/s
Channel(s) : 2 channels
Channel positions : Front: L R
Sampling rate : 48.0 kHz
Frame rate : 31.250 FPS (1536 SPF)
Bit depth : 16 bits
Compression mode : Lossy
Delay relative to video : -40 ms
Stream size : 149 MiB (10%)
Language : Chinese
Service kind : Complete Main
Default : Yes
Forced : No

Audio #2
ID : 3
Format : AC-3
Format/Info : Audio Coding 3
Format settings, Endianness : Big
Codec ID : A_AC3
Duration : 1 h 33 min
Bit rate mode : Constant
Bit rate : 224 kb/s
Channel(s) : 2 channels
Channel positions : Front: L R
Sampling rate : 48.0 kHz
Frame rate : 31.250 FPS (1536 SPF)
Bit depth : 16 bits
Compression mode : Lossy
Delay relative to video : -40 ms
Stream size : 149 MiB (10%)
Language : Chinese
Service kind : Complete Main
Default : No
Forced : No

Text #1
ID : 4
Format : VobSub
Muxing mode : zlib
Codec ID : S_VOBSUB
Codec ID/Info : Picture based subtitle format used on DVDs
Language : English
Default : Yes
Forced : No

Text #2
ID : 5
Format : VobSub
Muxing mode : zlib
Codec ID : S_VOBSUB
Codec ID/Info : Picture based subtitle format used on DVDs
Language : Russian
Default : No
Forced : No

Menu
00:00:00.066 : en:Chapter 01
00:13:21.367 : en:Chapter 02
00:29:22.327 : en:Chapter 03
00:43:04.648 : en:Chapter 04
00:53:51.294 : en:Chapter 05
01:09:02.705 : en:Chapter 06
01:20:04.366 : en:Chapter 07




О фильме: Жить в маленьком городке душно и скучно. Дни монотонны, никогда ничего не происходит. Каждое утро молодая женщина идет на рынок и по пути поднимается на развалины городской стены, это ее отдушина и ее тайный мир. Она замужем уже 8 лет, 6 лет из которых ее муж болен и 3 года они не были близки, они даже почти не разговаривают. Она старательно ухаживает за ним, но сердце ее холодно и безучастно, она всего лишь выполняет свой долг.
Однажды безнадежную монотонность дней разрушает приезд кого-то из прошлого обоих супругов. В маленький городок пришла весна..

Русские субтитры: Авторские Akuli



Screenshots (click to enlarge to original size):

Xiao cheng zhi chun / Spring in a Small Town (1948)

Xiao cheng zhi chun / Spring in a Small Town (1948)

Xiao cheng zhi chun / Spring in a Small Town (1948)


Xiao cheng zhi chun / Spring in a Small Town (1948)




–––––––––––––––––––––––––––––––––––––––-
>>> "Drama, Romance" <<< OR >>> "Chinese" <<<
–––––––––––––––––––––––––––––––––––––––-
>>> Visit Blog RSU75 Here <<<
–––––––––––––––––––––––––––––––––––––––-